Всегда рабочее зеркало без VPN и Proxy просто перед .vidak.icu напиши любое слово или цифру, Пример http://3940.vidak.icu

MVO

MVO

1 сезон

1

1 сезон

iTunes

1 сезон

13

1 сезон

Deluxe

pack

Рекомендуем

Repack

30

ВАЖНО

RePack

MK11

RePack

jed

RePack

fifa19

RePack

RDR2

RePack

NEED FOR SPEED™ PAYBACK

Кинопоиск HD

6 сезон

 Острые козырьки 6 сезон

Все сериалы

все сериалы на PB.wtf

RePack

FAR CRY 5
  
Magnet ссылка

Бодибилдер (Андрей Грачев) [2022, триллер, спорт, WEB-DLRip-AVC] RUS от ExKinoRay pb.wtf

Бодибилдер через торрент pb.wtf

Раздают: 1 [ 63 KB/s ]
Размер: 1.43 GB | Добавлен: 1 мес. 29 д. назад | Торрент скачан:200 раз
Смотреть онлайн Бодибилдер | Скачать    Ребята, помогите собрать деньги на оплату серверов!!!

12-06-2022 08:58 Бодибилдер Скачать торрент  


Бодибилдер
Информация о фильме:
Название: Бодибилдер
Год выхода: 2022
Жанр: триллер, спорт
Режиссер: Андрей Грачев
В ролях: Денис Семенихин, Михаил Горевой, Виктория Полторак, Владимир Епифанцев, Дарья Повереннова, Сергей Чонишвили, Максим Линников, Михаил Черкасов

Описание: Макс – знаменитый бодибилдер, мечтающий стать чемпионом планеты, по состоянию здоровья вынужден уйти из спорта. Его жизнь катится под откос. Случайно он знакомится с врачом скорой помощи Виктором, который когда-то по заказу Минобороны разработал уникальное лекарство, позволяющее не только лечить самые страшные заболевания, но и усиливать все возможности человеческого тела. Однако проект был заморожен. Виктор хочет закончить работу. Ему нужен испытуемый, и Макс идеально подходит для завершения эксперимента.



Страна: Россия
Студия: Кинокомпания "Русское кино"
Продолжительность: 01:31:08
Перевод: Не требуется



Информация о файле:
Кодек: AVC
Формат: MKV
Качество: WEB-DLRip-AVC
Видео: MPEG-4 AVC, 1024x428, 24,000 fps, 1800 kbps
Аудио RU: AC3, 6 ch, 48 kHz, 448 kbps



x264 info: frame I:827 Avg QP:12.54 size: 56333
x264 info: frame P:34778 Avg QP:15.75 size: 19372
x264 info: frame B:95643 Avg QP:17.66 size: 5330
General
Unique ID : 220807301767296239584528419604536488726 (0xA61DF07F3995556FB60AEC55D83FF316)
Complete name : D:uTorrentРипы wolf1245Bodibilder.2022.RUS.x264.WEB-DLRip-AVC.[wolf1245.ExKinoRay].mkv
Format : Matroska
Format version : Version 4
File size : 1.43 GiB
Duration : 1 h 31 min
Overall bit rate : 2 249 kb/s
Movie name : Bodibilder.2022.RUS.x264.WEB-DLRip-AVC.[wolf1245.ExKinoRay]
Encoded date : UTC 2022-06-12 08:41:26
Writing application : mkvmerge v68.0.0 ('The Curtain') 64-bit
Writing library : libebml v1.4.2 + libmatroska v1.6.4
Video
ID : 1
Format : AVC
Format/Info : Advanced Video Codec
Format profile : [email protected]
Format settings : CABAC / 10 Ref Frames
Format settings, CABAC : Yes
Format settings, Reference frames : 10 frames
Codec ID : V_MPEG4/ISO/AVC
Duration : 1 h 31 min
Bit rate : 1 800 kb/s
Width : 1 024 pixels
Height : 428 pixels
Display aspect ratio : 2.40:1
Frame rate mode : Constant
Frame rate : 24.000 FPS
Color space : YUV
Chroma subsampling : 4:2:0
Bit depth : 8 bits
Scan type : Progressive
Bits/(Pixel*Frame) : 0.171
Stream size : 1.15 GiB (80%)
Title : -=[wolf1245.ExKinoRay]=-
Writing library : x264 core 163 r3060 5db6aa6
Encoding settings : cabac=1 / ref=10 / deblock=1:-2:-1 / analyse=0x3:0x133 / me=umh / subme=10 / psy=1 / psy_rd=0.98:0.15 / mixed_ref=1 / me_range=32 / chroma_me=1 / trellis=2 / 8x8dct=1 / cqm=0 / deadzone=22,11 / fast_pskip=1 / chroma_qp_offset=-3 / threads=10 / lookahead_threads=2 / sliced_threads=0 / nr=0 / decimate=0 / interlaced=0 / bluray_compat=0 / constrained_intra=0 / bframes=10 / b_pyramid=2 / b_adapt=2 / b_bias=0 / direct=3 / weightb=1 / open_gop=0 / weightp=2 / keyint=240 / keyint_min=24 / scenecut=40 / intra_refresh=0 / rc_lookahead=100 / rc=2pass / mbtree=0 / bitrate=1800 / ratetol=1.0 / qcomp=0.60 / qpmin=0 / qpmax=69 / qpstep=4 / cplxblur=20.0 / qblur=0.5 / vbv_maxrate=50000 / vbv_bufsize=62500 / nal_hrd=none / filler=0 / ip_ratio=1.40 / pb_ratio=1.30 / aq=2:0.90
Language : Russian
Default : Yes
Forced : No
Audio
ID : 2
Format : AC-3
Format/Info : Audio Coding 3
Commercial name : Dolby Digital
Codec ID : A_AC3
Duration : 1 h 31 min
Bit rate mode : Constant
Bit rate : 448 kb/s
Channel(s) : 6 channels
Channel layout : L R C LFE Ls Rs
Sampling rate : 48.0 kHz
Frame rate : 31.250 FPS (1536 SPF)
Compression mode : Lossy
Stream size : 292 MiB (20%)
Title : RUS | Original
Language : Russian
Service kind : Complete Main
Default : Yes
Forced : No
Релиз от:
Автор релиза:
pb.wtf



Скачать Бодибилдер через торрент http://i2.imageban.ru/out/2022/06/10/a2a60e3a016d1b090a8891a8213cd699.jpg Скачать, смотреть онлайн Бодибилдер бесплантно в хорошем качестве Описание: Макс – знаменитый бодибилдер, мечтающий стать чемпионом планеты, по состоянию здоровья вынужден уйти из спорта. Его жизнь ... 8.8 10 9
Торрент: Зарегистрирован [2022-06-12 08:58] · скачан: 200 раз
Статус: √ проверено
Размер: 1.43 GB
Как cкачать? Как скачать Бодибилдер через торрент | UTorrent

28-11-2019 20:33  

Отключить вcю реклaмy на сайте

26-07-2022 07:26 Бодибилдер Скачать торрент  

О, Денис) Подписан на его ютуб канал и книжку с рецептами имею)pb.wtf



    Дорогой пользователь! Огромная просьба, поблагодарите релизера, оцените раздачу и оставьте свои комментарий, если Вы скачали Бодибилдер через торрент бесплатно!
    Комментировать посты могут только пользователи прошедшие не сложную регистрацию
    Показать сообщения:    

    Бодибилдер через торрент
    Скачать бесплатно Бодибилдер
    Бодибилдер скачать торрент
    Бодибилдер смотреть онлайн
    Cкачать фильм Бодибилдер бесплатно
    Бодибилдер скачать торрент в хорошем качестве
    Бодибилдер смотреть онлайн бесплатно в хорошем качестве


    Вы не можете начинать темы
    Вы не можете отвечать на сообщения
    Вы не можете редактировать свои сообщения
    Вы не можете удалять свои сообщения
    Вы не можете голосовать в опросах
    Вы не можете прикреплять файлы к сообщениям
    Вы можете скачивать файлы