Всегда рабочее зеркало без VPN и Proxy просто перед .vidak.icu напиши любое слово или цифру, Пример http://xorv.vidak.icu

Лицензия

MVO

1 сезон

1

1 сезон

iTunes

1 сезон

13

1 сезон

Deluxe

pack

Рекомендуем

Repack

30

ВАЖНО

RePack

MK11

RePack

jed

RePack

fifa19

RePack

RDR2

RePack

NEED FOR SPEED™ PAYBACK

Кинопоиск HD

6 сезон

 Острые козырьки 6 сезон

Все сериалы

все сериалы на PB.wtf

RePack

FAR CRY 5
  
Magnet ссылка

Пацаны / The Boys / Сезон: 3 / Серии: 1-8 из 8 (Филип Сгриккиа, Стефан Шварц, Фред Туа) [2022, Фантастика, боевик, комедия, криминал, WEBRip] MVO [HDRezka Studio] pb.wtf

Пацаны через торрент pb.wtf

Раздают: 4 [ 1 KB/s ] Качают: 3 [ 0 KB/s ]
Размер: 5.77 GB | Добавлен: 1 мес. 5 д. назад | Торрент скачан:159 раз
Смотреть онлайн Пацаны | Скачать    Ребята, помогите собрать деньги на оплату серверов!!!

12-06-2022 09:29 Пацаны Скачать торрент  

Пацаны | The Boys
«Never Meet Your Heroes»
Год выпуска: 2022
Страна: США
Выпущено: Amazon Studios, Original Film, Point Grey Pictures, Sony Pictures Television
Жанр: Фантастика, боевик, комедия, криминал
Продолжительность: ~ 01:00:00
Перевод: Профессиональный (многоголосый закадровый) | HDRezka Studio
Субтитры: Русские (форсированные hardsub)

Режиссер: Филип Сгриккиа, Стефан Шварц, Фред Туа

rating

В ролях: Карл Урбан (Karl Urban), Джек Куэйд (Jack Quaid), Энтони Старр (Antony Starr), Эрин Мориарти (Erin Moriarty), Доминик МакЭллигот (Dominique McElligott), Джесси Ашер (Jessie T. Usher), Лас Алонсо (Laz Alonso), Чейс Кроуфорд (Chace Crawford), Томер Капон (Tomer Capon), Карен Фукухара (Karen Fukuhara), Нэйтан Митчелл (Nathan Mitchell), Колби Минифи (Colby Minifie) и др.

Описание: Действие сериала разворачивается в мире, где существуют супергерои. Именно они являются настоящими звездами. Их все знают и обожают. Но за идеальным фасадом скрывается гораздо более мрачный мир наркотиков и секса, а большинство героев — в жизни не самые приятные люди. Для контроля за супергероями ЦРУ создает специальный отряд, неофициально известный как «Пацаны», суровые члены которого всегда готовы поставить зазнавшегося героя на место самым жестоким способом.

Качество: WEBRip
Формат: AVI

Видео: XviD, 720x304 (2.35:1), 23,976 fps, ~1500 kbps
Аудио: AC3, 48 kHz, 2 ch, 192 kbps
скриншот  скриншот  скриншот  скриншот  

Полное имя : The.Boys.S03.WEBRip.Rus.HDRezka\The.Boys.S03E01.WEBRip.Rus.HDRezka.JuSSiKa.avi
Формат : AVI
Формат/Информация : Audio Video Interleave
Размер файла : 750 Мбайт
Продолжительность : 1 ч. 0 м.
Общий поток : 1733 Кбит/сек
Программа кодирования : VirtualDubMod 1.5.10.3 (build 2550/release)
Библиотека кодирования : VirtualDubMod build 2550/release

Видео
Идентификатор : 0
Формат : MPEG-4 Visual
Профиль формата : Advanced [email protected]
Настройки формата : BVOP1
Параметр BVOP формата : 1
Параметр QPel формата : Нет
Параметр GMC формата : Без точки перехода
Параметр матрицы формата : Default (H.263)
Идентификатор кодека : XVID
Идентификатор кодека/Подсказка : XviD
Продолжительность : 1 ч. 0 м.
Битрейт : 1531 Кбит/сек
Ширина : 720 пикселей
Высота : 304 пикселя
Соотношение сторон : 2,35:1
Частота кадров : 23,976 (24000/1001) кадра/сек
Цветовое пространство : YUV
Субдискретизация насыщенности : 4:2:0
Битовая глубина : 8 бит
Тип развёртки : Прогрессивная
Метод сжатия : С потерями
Бит/(Пиксели*Кадры) : 0.292
Размер потока : 663 Мбайт (88%)
Библиотека кодирования : XviD 1.2.1 (UTC 2008-12-04)

Аудио
Идентификатор : 1
Формат : AC-3
Формат/Информация : Audio Coding 3
Параметр Endianness формата : Big
Идентификатор кодека : 2000
Продолжительность : 1 ч. 0 м.
Вид битрейта : Постоянный
Битрейт : 192 Кбит/сек
Каналы : 2 канала
Расположение каналов : Front: L R
Частота : 48,0 КГц
Частота кадров : 31,250 кадров/сек (1536 SPF)
Битовая глубина : 16 бит
Метод сжатия : С потерями
Размер потока : 83,1 Мбайт (11%)
Выравнивание : Разделение по промежуткам
Продолжительность промежутка : 42 мс. (1,00 видеокадр)
Время предзагрузки промежутка : 500 мс.
ServiceKind/String : Complete Main

Когда раздача ведётся путём добавления новых серий, при каждом добавлении создётся новый торрент. Чтобы начать докачку новой серии, пользователям необходимо сделать следующее:
(1) остановить скачивание,
(2) удалить старый торрент у себя из клиента (старые серии удалять не надо),
(3) скачать новый торрент и запустить его у себя в клиенте вместо старого, при этом указать клиенту путь в старую папку, куда и должно происходить скачивание новых серий.
Ваш клиент при этом должен произвести хеширование (проверку) старой папки (если не производит сам - помогите ему сделать это), и будет докачивать только те серии, которых у вас ещё нет. Старые серии при этом не удаляются, а продолжают раздаваться!
Eсли вы уже удалили старые серии, то предотвратить повторную закачку старых серий можно, отжав галочку в соответсвующих местах при запуске нового торрента. По возможности, желательно не удалять старые серии как можно дольше, чтобы релизёр не столько продолжал раздавать старые серии, а смог сконцентрироваться на новых.

pb.wtf



Скачать Пацаны через торрент https://i120.fastpic.org/big/2022/0605/24/c05408a29d02a3c0cf246cfc06237424.jpg?r=1 Скачать, смотреть онлайн Пацаны бесплантно в хорошем качестве Описание: Действие сериала разворачивается в мире, где существуют супергерои. Именно они являются настоящими звездами. Их все знают и ... 10 10 19
Info! Золотая раздача, скачанное не засчитывается.
Торрент: Зарегистрирован [2022-07-09 11:06] · скачан: 159 раз
Статус: √ проверено
Размер: 5.77 GB
Как cкачать? Как скачать Пацаны через торрент | UTorrent

% Раздел Тема Автор DL S | L
Зарубежные сериалы [ 5.77 GB ] Пацаны / The Boys / Сезон: 3 / Серии: 1-8 из 8 [2022 WEBRip] DUB [Red Head Sound] bober100 Скачать
4 | 0
Зарубежные сериалы [ 29.87 GB ] Пацаны / The Boys / Сезон: 3 / Серии: 1-8 из 8 [2022 WEB-DL 1080p] DUB [Red Head Sound] bober100 Скачать
3 | 0
Зарубежные сериалы [ 48.09 GB ] Пацаны / The Boys / Сезон: 3 / Серии: 1-8 из 8 [2022 WEBRip 1080p] 3xMVO bober100 Скачать
2 | 0
Зарубежные сериалы [ 22.85 GB ] Пацаны / The Boys / Сезон 3 / Серии 1-8 из 8 [2022 WEB-DL 1080p] 3x [MVO] + [Ukr MVO] killermax2013 Скачать
1 | 1
Зарубежные сериалы [ 40.34 GB ] Пацаны / The Boys / Сезон: 3 / Серии 1-8 из 8 [2022 WEB-DLRip 1080] 6 x MVO + DUB GEKADOL Скачать
6 | 1
Зарубежные сериалы [ 32.96 GB ] Пацаны / The Boys / Сезон: 3 / Серии 1-8 из 8 [2022 WEB-DL 1080p] MVO GEKADOL Скачать
2 | 0
Зарубежные сериалы [ 54.11 GB ] Пацаны / The Boys / Сезон: 3 / Серии: 1-8 из 8 [2022 WEBRip 1080p] MVO [AlexFilm] bober100 Скачать
2 | 0

28-11-2019 20:33  

Отключить вcю реклaмy на сайте

    Дорогой пользователь! Огромная просьба, поблагодарите релизера, оцените раздачу и оставьте свои комментарий, если Вы скачали Пацаны через торрент бесплатно!
    Комментировать посты могут только пользователи прошедшие не сложную регистрацию
    Показать сообщения:    

    Пацаны через торрент
    Скачать бесплатно Пацаны
    Пацаны скачать торрент
    Пацаны смотреть онлайн
    Cкачать фильм Пацаны бесплатно
    Пацаны скачать торрент в хорошем качестве
    Пацаны смотреть онлайн бесплатно в хорошем качестве


    Вы не можете начинать темы
    Вы не можете отвечать на сообщения
    Вы не можете редактировать свои сообщения
    Вы не можете удалять свои сообщения
    Вы не можете голосовать в опросах
    Вы не можете прикреплять файлы к сообщениям
    Вы можете скачивать файлы