Лицензия

MVO

1

1 сезон

Лицензия

Лицензия

13

MVO

1 сезон

Deluxe Edition

pack

Рекомендуем

30

Repack

ВАЖНО

ВАЖНО

Ghostwire

RePack

jed

RePack

fifa19

RePack

RDR2

RePack

NEED FOR SPEED™ PAYBACK

RePack

Кинопоиск HD

 Острые козырьки 6 сезон

6 сезон

FAR CRY 6

RePack

Лицензия

MVO

1

1 сезон

1 сезон

Лицензия

  

Алита: Боевой ангел / Alita: Battle Angel (Роберт Родригес) [2019, фантастика, боевик, триллер, мелодрама, приключения, HyBriDRip - HEVC 1080p 10 bit 60 FPS, DUB]

Алита: Боевой ангел через торрент pb.wtf

Размер: 3.58 GB | Добавлен: 3 мес. 11 д. назад | Торрент скачан:66 раз
Смотреть онлайн Алита: Боевой ангел | Скачать   

13-06-2022 15:37 Алита: Боевой ангел Скачать торрент  

Alita: Battle Angel
«Ангел падёт, и восстанет воин»


Год выпуска: 2019
Страна: США, Япония, Канада
Жанр: фантастика, боевик, приключения
Продолжительность: 02:01:57
Перевод: Дублированный | CPI Films
Субтитры: русские | CPI Films
Режиссер: Роберт Родригес
В ролях: Роза Салазар, Кристоф Вальц, Дженнифер Коннелли, Махершала Али, Эд Скрейн, Джеки Эрл Хейли, Кин Джонсон, Хорхе Лендеборг мл., Лана Кондор, Идара Виктор, ...
Описание:
Действие фильма происходит через 300 лет после Великой войны в XXVI веке. Доктор Идо находит останки женщины-киборга. После починки киборг ничего не помнит, но обнаруживает, что в состоянии пользоваться боевыми приемами киборгов. Начинаются поиски утерянных воспоминаний.
Мировая премьера: 31 января 2019

Качество: HyBriDRip 1080p Rip by DD2D3
Видео: V_MPEGH/ISO/HEVC; 1920x1080 (16:9); 3672 Kbps; 60 fps; 0,030 bpp
Аудио: русский; AC3; 448 Kbps; CBR; 6 ch ||
Навигация по главам: есть
Доп. информация Open matte


Общее
Уникальный идентификатор : 177138263064098557294661756663438412367 (0x854396A8CCE466CF8BFEED52E4F68A4F)
Полное имя : D:\Alita Battle Angel (2019) [Open Matte] HyBriDRip - HEVC 1080p 10 bit 60 FPS.mkv
Формат : Matroska
Версия формата : Version 2
Размер файла : 3,58 Гбайт
Продолжительность : 2 ч. 1 м.
Общий поток : 4 205 Кбит/сек
Название фильма : Rip by from DD2D3
Дата кодирования : UTC 2022-06-13 14:32:24
Программа кодирования : mkvmerge v6.9.1 ('Blue Panther') 32bit built on Apr 18 2014 18:15:44
Библиотека кодирования : libebml v1.3.0 + libmatroska v1.4.1
Attachments : poster

Видео
Идентификатор : 1
Формат : HEVC
Формат/Информация : High Efficiency Video Coding
Профиль формата : Main [email protected]@Main
Идентификатор кодека : V_MPEGH/ISO/HEVC
Продолжительность : 2 ч. 1 м.
Битрейт : 3 673 Кбит/сек
Ширина : 1 920 пикселей
Высота : 1 080 пикселей
Соотношение сторон : 16:9
Режим частоты кадров : Постоянный
Частота кадров : 60,000 кадров/сек
Цветовое пространство : YUV
Субдискретизация насыщенности : 4:2:0
Битовая глубина : 10 бит
Бит/(Пиксели*Кадры) : 0.030
Размер потока : 3,13 Гбайт (87%)
Default : Да
Forced : Нет
Цветовой диапазон : Limited
Основные цвета : BT.709
Характеристики трансфера : BT.709
Коэффициенты матрицы : BT.709

Аудио
Идентификатор : 2
Формат : AC-3
Формат/Информация : Audio Coding 3
Коммерческое название : Dolby Digital
Идентификатор кодека : A_AC3
Продолжительность : 2 ч. 1 м.
Вид битрейта : Постоянный
Битрейт : 448 Кбит/сек
Каналы : 6 каналов
Channel layout : L R C LFE Ls Rs
Частота : 48,0 КГц
Частота кадров : 31,250 кадров/сек (1536 SPF)
Метод сжатия : С потерями
Размер потока : 391 Мбайт (11%)
Заголовок : Dub CPI Films (BD CEE)
Язык : Russian
Service kind : Complete Main
Default : Нет
Forced : Нет

Текст
Идентификатор : 3
Формат : UTF-8
Идентификатор кодека : S_TEXT/UTF8
Идентификатор кодека/Информация : UTF-8 Plain Text
Заголовок : BD
Язык : Russian
Default : Нет
Forced : Нет

Меню
00:00:00.000 : en:Chapter 01
00:03:28.625 : en:Chapter 02
00:07:51.680 : en:Chapter 03
00:10:07.982 : en:Chapter 04
00:13:06.703 : en:Chapter 05
00:15:06.739 : en:Chapter 06
00:18:04.542 : en:Chapter 07
00:22:58.711 : en:Chapter 08
00:25:35.325 : en:Chapter 09
00:31:40.899 : en:Chapter 10
00:33:29.216 : en:Chapter 11
00:36:32.816 : en:Chapter 12
00:38:30.892 : en:Chapter 13
00:42:05.481 : en:Chapter 14
00:45:58.214 : en:Chapter 15
00:48:31.450 : en:Chapter 16
00:52:57.007 : en:Chapter 17
00:55:14.353 : en:Chapter 18
01:00:39.761 : en:Chapter 19
01:02:56.564 : en:Chapter 20
01:05:16.788 : en:Chapter 21
01:10:50.496 : en:Chapter 22
01:13:37.288 : en:Chapter 23
01:16:35.216 : en:Chapter 24
01:18:52.227 : en:Chapter 25
01:22:48.297 : en:Chapter 26
01:24:55.340 : en:Chapter 27
01:28:25.217 : en:Chapter 28
01:33:18.551 : en:Chapter 29
01:36:08.763 : en:Chapter 30
01:41:54.692 : en:Chapter 31
01:45:23.442 : en:Chapter 32
01:48:16.490 : en:Chapter 33
01:51:43.655 : en:Chapter 34
01:54:43.668 : en:Chapter 35
01:56:51.504 : en:Chapter 36
скриншот  скриншот  скриншот  скриншот  

© Оформление by DD2D3



Скачать Алита: Боевой ангел через торрент http://images.vfl.ru/ii/1655131997/fc49bce7/38443534.jpg Скачать, смотреть онлайн Алита: Боевой ангел бесплантно в хорошем качестве Описание: Действие фильма происходит через 300 лет после Великой войны в XXVI веке. Доктор Идо находит останки женщины-киборга. После ... 8.7 10 7
Торрент: Зарегистрирован [2022-06-13 15:37] · скачан: 66 раз
Статус: √ проверено
Размер: 3.58 GB
Как cкачать? Как скачать Алита: Боевой ангел через торрент | UTorrent

% Раздел Тема Автор DL S | L
3D Фильмы [ 7.88 GB ] Алита: Боевой ангел 3D / Alita: Battle Angel in 3D | Дубляж | 1080p, Дубляж slaventi-69 Скачать
1 | 0
Фильмы [HD 720p, 1080p] (Хороший звук DUB, MVO) [ 6.74 GB ] Алита: Боевой ангел / Alita: Battle Angel | DUB | 1080p killermax2013 Скачать
3 | 0
Ultra HD (UHD: 2K, 4K, 8K) [ 45.58 GB ] Алита: Боевой ангел / Alita: Battle Angel | Лицензия | 2160p sheker187 Скачать
2 | 0
Фильмы с авторской озвучкой [ 1.46 GB ] Алита: Боевой ангел / Alita: Battle Angel | AVO | DLRip killermax2013 Скачать
1 | 0
Фильмы (HD 720p, 1080p) (48-60 fps) [ 5.21 GB ] Алита: Боевой ангел / Alita: Battle Angel | Дубляж | 720p / 60 FPS slaventi-69 Скачать
1 | 0
Фильмы 2019-2020 [DVDrip, WEB-DLRip, HDrip] (DUB, MVO) [ 2.86 GB ] Алита: Боевой ангел / Alita: Battle Angel | Лицензия BD CEE | BDRip-AVC Enigma2010 Скачать
6 | 0
Фильмы 2019-2020 [DVDrip, WEB-DLRip, HDrip] (DUB, MVO) [ 2.18 GB ] Алита: Боевой ангел / Alita: Battle Angel | Лицензия | BDRip от Twi7ter Twi7ter Скачать
10 | 0

28-11-2019 20:33  

Отключить вcю реклaмy на сайте

    Дорогой пользователь! Огромная просьба, поблагодарите релизера, оцените раздачу и оставьте свои комментарий, если Вы скачали Алита: Боевой ангел через торрент бесплатно!!
    Комментировать посты могут только пользователи прошедшие не сложную регистрацию
    Показать сообщения:    


    Алита: Боевой ангел через торрент
    Скачать бесплатно Алита: Боевой ангел
    Алита: Боевой ангел скачать торрент
    Алита: Боевой ангел смотреть онлайн
    Cкачать фильм Алита: Боевой ангел бесплатно
    Алита: Боевой ангел скачать торрент в хорошем качестве
    Алита: Боевой ангел смотреть онлайн бесплатно в хорошем качестве
    Вы не можете начинать темы
    Вы не можете отвечать на сообщения
    Вы не можете редактировать свои сообщения
    Вы не можете удалять свои сообщения
    Вы не можете голосовать в опросах
    Вы не можете прикреплять файлы к сообщениям
    Вы можете скачивать файлы