Всегда рабочее зеркало без VPN и Proxy просто перед .vidak.icu напиши любое слово или цифру, Пример http://5mw5.vidak.icu

Лицензия

MVO

1 сезон

1

1 сезон

iTunes

1 сезон

13

1 сезон

Deluxe

pack

Рекомендуем

Repack

30

ВАЖНО

RePack

MK11

RePack

jed

RePack

fifa19

RePack

RDR2

RePack

NEED FOR SPEED™ PAYBACK

Кинопоиск HD

6 сезон

 Острые козырьки 6 сезон

Все сериалы

все сериалы на PB.wtf

RePack

FAR CRY 5
  
Magnet ссылка

ЮЗЗЗ / Сезон: 1 / Серии: 1-8 из 8 (Стас Иванов) [2022, Драма, криминал, WEBRip 720p] pb.wtf

ЮЗЗЗ через торрент pb.wtf

Раздают: 6 [ 175 KB/s ] Качают: 1 [ 0 KB/s ]
Размер: 8.05 GB | Добавлен: 2 мес. 1 д. назад | Торрент скачан:172 раза
Смотреть онлайн ЮЗЗЗ | Скачать    Ребята, помогите собрать деньги на оплату серверов!!!

14-06-2022 13:10 ЮЗЗЗ Скачать торрент  

ЮЗЗЗ
Год выпуска: 2022
Страна: Россия
Жанр: Драма, криминал
Продолжительность: ~ 00:47:00 серия
Перевод: Не требуется
Субтитры: отсутствуют

Режиссер: Стас Иванов



В ролях: Антон Кузнецов, Кузьма Котрелев, Мария Машкова, Маша Мацель, Дмитрий Чеботарёв, Гела Месхи, Полина Айнутдинова, Виталия Корниенко, Тимур Абитов, Таша Цветкова

Описание: Ростов-на-Дону, наши дни. В одном из рабочих спальных районов на юго-западе города, окрещённого жителями "ЮЗ" кипит жизнь – местная группировка молодых парней то и дело меряется силой с ровесниками из "блатного" центра, ну а взрослые "хозяева" районов ворочают делами посерьезнее. Равиль – молодой программист, живущий на ЮЗе. Окончив техникум, парень мечтает уехать в США и там заниматься любимым делом. В ожидании гранта, Равиль подрабатывает курьером. Однако, молодого романтика манит соблазн быстрых криминальных денег. Чтобы осуществить заветную мечту о другой жизни и завоевать сердце юной красотки Эли из района богачей, Равиль ступает на скользкий путь.

Качество: WEBRip 720p
Формат: MKV

Видео: MPEG-4 AVC, ~ 3000 Кбит/с, 1280x640, 25 кадр/с
Аудио: 48.0 kHz, AC3 Dolby Digital, 2/0 (L,R) ch, ~ 192 kbps

General
Unique ID: 220323594257233330724188650338164692324 (0xA5C0C7E01DEEFF3A83E8C7F4FB205564)
Complete name: F:\fiiles x\ЮЗЗЗ .2022.WEBRip 720p.Files-x\02. ЮЗЗЗ .2022.WEBRip 720p.Files-x.mkv
Format: Matroska
Format version: Version 2
File size: 1.04 GiB
Duration: 47 min 11 s
Overall bit rate mode: Variable
Overall bit rate: 3 159 kb/s
Encoded date: UTC 2022-05-24 20:29:57
Writing application: mkvmerge v7.8.0 ('River Man') 32bit built on Apr 3 2015 12:11:22
Writing library: libebml v1.3.1 + libmatroska v1.4.2

Video
ID: 1
Format: AVC
Format/Info: Advanced Video Codec
Format profile: [email protected]
Format settings: CABAC / 2 Ref Frames
Format settings, CABAC: Yes
Format settings, Reference: 2 frames
Codec ID: V_MPEG4/ISO/AVC
Duration: 47 min 11 s
Bit rate mode: Variable
Bit rate: 2 904 kb/s
Maximum bit rate: 3 000 kb/s
Width: 1 280 pixels
Height: 640 pixels
Display aspect ratio: 2.000
Frame rate mode: Constant
Frame rate: 25.000 FPS
Color space: YUV
Chroma subsampling: 4:2:0
Bit depth: 8 bits
Scan type: Progressive
Bits/(Pixel*Frame): 0.142
Stream size: 980 MiB (92%)
Default: Yes
Forced: No
Color range: Limited
Color primaries: BT.709
Transfer characteristics: BT.709

Audio
ID: 2
Format: AC-3
Format/Info: Audio Coding 3
Commercial name: Dolby Digital
Codec ID: A_AC3
Duration: 47 min 11 s
Bit rate mode: Constant
Bit rate: 192 kb/s
Channel(s): 2 channels
Channel layout: L R
Sampling rate: 44.1 kHz
Frame rate: 28.711 FPS (1536 SPF)
Compression mode: Lossy
Delay relative to video: -120 ms
Stream size: 64.8 MiB (6%)
Service kind: Complete Main
Default: Yes
Forced: No

pb.wtf



Скачать ЮЗЗЗ через торрент https://i120.fastpic.org/big/2022/0524/e2/259b8c76d5a8135212d9eea80f4eb8e2.jpg Скачать, смотреть онлайн ЮЗЗЗ бесплантно в хорошем качестве Описание: Ростов-на-Дону, наши дни. В одном из рабочих спальных районов на юго-западе города, окрещённого жителями "ЮЗ" кипит жизнь – ... 10 10 7
Info! Золотая раздача, скачанное не засчитывается.
Торрент: Зарегистрирован [2022-06-14 13:10] · скачан: 172 раз
Статус: √ проверено
Размер: 8.05 GB
Как cкачать? Как скачать ЮЗЗЗ через торрент | UTorrent

% Раздел Тема Автор DL S | L
TNT serials [ 11.85 GB ] ЮЗЗЗ / Сезон: 1 / Серии: 1-8 из 8 [2022 WEBRip 1080p] bober100 Скачать
24 | 7
TNT serials [ 4.7 GB ] ЮЗЗЗ / Сезон: 1 / Серии: 1-8 из 8 [2022 WEBRip] bober100 Скачать
16 | 0
TNT serials [ 4.57 GB ] ЮЗЗЗ / Сезон: 1 / Серии: 1-8 из 8 [2022 WEBRip-AVC] bober100 Скачать
5 | 0

28-11-2019 20:33  

Отключить вcю реклaмy на сайте

    Дорогой пользователь! Огромная просьба, поблагодарите релизера, оцените раздачу и оставьте свои комментарий, если Вы скачали ЮЗЗЗ через торрент бесплатно!
    Комментировать посты могут только пользователи прошедшие не сложную регистрацию
    Показать сообщения:    

    ЮЗЗЗ через торрент
    Скачать бесплатно ЮЗЗЗ
    ЮЗЗЗ скачать торрент
    ЮЗЗЗ смотреть онлайн
    Cкачать фильм ЮЗЗЗ бесплатно
    ЮЗЗЗ скачать торрент в хорошем качестве
    ЮЗЗЗ смотреть онлайн бесплатно в хорошем качестве


    Вы не можете начинать темы
    Вы не можете отвечать на сообщения
    Вы не можете редактировать свои сообщения
    Вы не можете удалять свои сообщения
    Вы не можете голосовать в опросах
    Вы не можете прикреплять файлы к сообщениям
    Вы можете скачивать файлы