Достать ножи: Стеклянная луковица

MVO

Добыча

Дубляж

Уэнсдэй

1 сезон

Тор

Дубляж

13 клиническая

1 сезон

Жестокая ночь

MVO

Одни из нас

1 сезон

Deluxe

pack

Рекомендуем

30

Пиратка

ВАЖНО

ВАЖНО

Ghostwire

Пиратка

jed

RePack

nioh2

RePack

RDR2

RePack

NEED FOR SPEED™ PAYBACK

RePack

скачать торрент

Кинопоиск HD

Острые козырьки 6 сезон

6 сезон

FAR CRY 6

RePack

скачать торрент

Лицензия

скачать торрент

MVO

1

1 сезон

скачать торрент

1 сезон

скачать торрент

Лицензия

  

Скорая / Ambulance (Майкл Бэй) [2022, Боевик, триллер, драма, криминал, BDRip 720p] Дубляж [Пифагор] +2xMVO [Jaskier, TVShows] +AVO [М. Яроцкий (kyberpunk)]

Скорая через торрент pb.wtf

Раздают: 6 [ 674 KB/s ]
Размер: 6.68 GB | Добавлен: 7 мес. назад | Торрент скачан:555 раз
Смотреть онлайн | Скачать | Поддержите нас   

16-06-2022 18:09 Скорая Скачать торрент  

Скорая
Ambulance

Год выпуска: 2022
Страна: США
Выпущено: Universal Pictures, Bay Films, Endeavor Content
Жанр: Боевик, триллер, драма, криминал
Продолжительность: 02:16:20
Перевод:
#1: Дублированный | Пифагор
#2: Профессиональный многоголосый | Jaskier
#3: Профессиональный многоголосый | TVShows
#4: Авторский | М. Яроцкий (kyberpunk)
Субтитры: Русские (Forced, 2 x full), английские

Режиссер: Майкл Бэй

rating

В ролях: Джейк Джилленхол, Яхья Абдул-Матин II, Эйса Гонсалес, Деван Лонг, Гаррет Диллахант, Эй Мартинез, Энди Фавро, Кейр О Доннелл, Хосе Пабло Кантильо, Колин Вуделл

Описание: Ветеран Уилл Шарп отчаянно нуждается в деньгах, чтобы спасти смертельно больную жену. Он обращается за помощью к брату-преступнику Дэнни, и тот уговаривает его ограбить банк. Однако всё идет не по плану, и братьям приходится угнать машину скорой помощи вместе с двумя заложниками - врачом и раненым полицейским.

Качество: BDRip 720p
Формат: MKV

Видео: MPEG-4 AVC, 1280×536 at 23.976 fps, [email protected], ~4901 kbps
Аудио #01: 48 kHz, AC3, 5.1, 384 Kbps | Дублированный | Пифагор | RUS |
Аудио #02: 48 kHz, AC3, 5.1, 448 Kbps | Профессиональный многоголосый | Jaskier | RUS |
Аудио #03: 48 kHz, AC3, 2.0, 192 Kbps | Профессиональный многоголосый | TVShows | RUS |
Аудио #04: 48 kHz, AC3, 5.1, 640 Kbps | Авторский | М. Яроцкий (kyberpunk) | RUS |
Аудио #05: 48 kHz, AC3, 5.1, 448 Kbps | Оригинал | ENG |
скриншот  скриншот  скриншот  скриншот  

x264 [info]: frame I:1382 Avg QP:14.34 size: 83235
x264 [info]: frame P:64444 Avg QP:15.80 size: 39648
x264 [info]: frame B:130302 Avg QP:18.32 size: 17968
x264 [info]: consecutive B-frames: 9,5% 10,4% 17,6% 28,9% 13,3% 14,0% 2,5% 2,1% 0,6% 0,3% 0,1% 0,4% 0,2%

General
Unique ID : 314916033476109631848868352594789090237 (0xECEA9F33C9022269AAEEBEEEF4D143BD)
Complete name : D:Ambulance.2022.BDRip.720p.x264.seleZen.mkv
Format : Matroska
Format version : Version 4
File size : 6.68 GiB
Duration : 2 h 16 min
Overall bit rate : 7 017 kb/s
Movie name : Ambulance.2022.BDRip.720p.x264.seleZen
Encoded date : UTC 16.06.2022 07:05:34
Writing application : mkvmerge v63.0.0 ('Everything') 64-bit
Writing library : libebml v1.4.2 + libmatroska v1.6.4
Cover : Yes
Attachments : cover.jpg / small_cover.jpg

Video
ID : 1
Format : AVC
Format/Info : Advanced Video Codec
Format profile : [email protected]
Format settings : CABAC / 12 Ref Frames
Format settings, CABAC : Yes
Format settings, Reference : 12 frames
Codec ID : V_MPEG4/ISO/AVC
Duration : 2 h 16 min
Bit rate : 4 901 kb/s
Width : 1 280 pixels
Height : 536 pixels
Display aspect ratio : 2.40:1
Frame rate mode : Constant
Frame rate : 23.976 (24000/1001) FPS
Color space : YUV
Chroma subsampling : 4:2:0
Bit depth : 8 bits
Scan type : Progressive
Bits/(Pixel*Frame) : 0.298
Stream size : 4.67 GiB (70%)
Title : -=DoMiNo=-
Writing library : x264 core 164 r3095 baee400
Encoding settings : cabac=1 / ref=12 / deblock=1:-2:-2 / analyse=0×3:0×133 / me=umh / subme=10 / psy=1 / psy_rd=1.05:0.00 / mixed_ref=1 / me_range=32 / chroma_me=1 / trellis=2 / 8×8dct=1 / cqm=0 / deadzone=21,11 / fast_pskip=0 / chroma_qp_offset=-2 / threads=17 / lookahead_threads=4 / sliced_threads=0 / nr=0 / decimate=1 / interlaced=0 / bluray_compat=0 / constrained_intra=0 / bframes=12 / b_pyramid=2 / b_adapt=2 / b_bias=0 / direct=1 / weightb=1 / open_gop=0 / weightp=2 / keyint=250 / keyint_min=23 / scenecut=40 / intra_refresh=0 / rc_lookahead=60 / rc=crf / mbtree=0 / crf=16.8 / qcomp=0.65 / qpmin=0 / qpmax=69 / qpstep=4 / vbv_maxrate=50000 / vbv_bufsize=62500 / crf_max=0.0 / nal_hrd=none / filler=0 / ip_ratio=1.35 / pb_ratio=1.25 / aq=3:0.80
Language : English
Default : Yes
Forced : No
Color range : Limited
Color primaries : BT.709
Transfer characteristics : BT.709
Matrix coefficients : BT.709

Audio #1
ID : 2
Format : AC-3
Format/Info : Audio Coding 3
Commercial name : Dolby Digital
Codec ID : A_AC3
Duration : 2 h 16 min
Bit rate mode : Constant
Bit rate : 384 kb/s
Channel (s) : 6 channels
Channel layout : L R C LFE Ls Rs
Sampling rate : 48.0 kHz
Frame rate : 31.250 FPS (1536 SPF)
Compression mode : Lossy
Stream size : 374 MiB (5%)
Title : Дубляж
Language : Russian
Service kind : Complete Main
Default : Yes
Forced : Yes

Audio #2
ID : 3
Format : AC-3
Format/Info : Audio Coding 3
Commercial name : Dolby Digital
Codec ID : A_AC3
Duration : 2 h 16 min
Bit rate mode : Constant
Bit rate : 448 kb/s
Channel (s) : 6 channels
Channel layout : L R C LFE Ls Rs
Sampling rate : 48.0 kHz
Frame rate : 31.250 FPS (1536 SPF)
Compression mode : Lossy
Stream size : 437 MiB (6%)
Title : MVO [Jaskier]
Language : Russian
Service kind : Complete Main
Default : No
Forced : No

Audio #3
ID : 4
Format : AC-3
Format/Info : Audio Coding 3
Commercial name : Dolby Digital
Codec ID : A_AC3
Duration : 2 h 16 min
Bit rate mode : Constant
Bit rate : 192 kb/s
Channel (s) : 2 channels
Channel layout : L R
Sampling rate : 48.0 kHz
Frame rate : 31.250 FPS (1536 SPF)
Compression mode : Lossy
Stream size : 187 MiB (3%)
Title : MVO [TVShows]
Language : Russian
Service kind : Complete Main
Default : No
Forced : No

Audio #4
ID : 5
Format : AC-3
Format/Info : Audio Coding 3
Commercial name : Dolby Digital
Codec ID : A_AC3
Duration : 2 h 16 min
Bit rate mode : Constant
Bit rate : 640 kb/s
Channel (s) : 6 channels
Channel layout : L R C LFE Ls Rs
Sampling rate : 48.0 kHz
Frame rate : 31.250 FPS (1536 SPF)
Compression mode : Lossy
Stream size : 624 MiB (9%)
Title : AVO_[М. Яроцкий (kyberpunk)]
Language : Russian
Service kind : Complete Main
Default : No
Forced : No

Audio #5
ID : 6
ID in the original source m : 4352 (0×1100)
Format : AC-3
Format/Info : Audio Coding 3
Commercial name : Dolby Digital
Codec ID : A_AC3
Duration : 2 h 16 min
Bit rate mode : Constant
Bit rate : 448 kb/s
Channel (s) : 6 channels
Channel layout : L R C LFE Ls Rs
Sampling rate : 48.0 kHz
Frame rate : 31.250 FPS (1536 SPF)
Compression mode : Lossy
Stream size : 437 MiB (6%)
Language : English
Service kind : Complete Main
Default : No
Forced : No
Original source medium : Blu-ray

Text #1
ID : 7
Format : UTF-8
Codec ID : S_TEXT/UTF8
Codec ID/Info : UTF-8 Plain Text
Duration : 2 h 13 min
Bit rate : 1 b/s
Count of elements : 36
Stream size : 1.47 KiB (0%)
Title : Forced
Language : Russian
Default : Yes
Forced : No

Text #2
ID : 8
Format : UTF-8
Codec ID : S_TEXT/UTF8
Codec ID/Info : UTF-8 Plain Text
Duration : 2 h 12 min
Bit rate : 128 b/s
Count of elements : 2304
Stream size : 124 KiB (0%)
Title : Full v.1
Language : Russian
Default : No
Forced : No

Text #3
ID : 9
Format : UTF-8
Codec ID : S_TEXT/UTF8
Codec ID/Info : UTF-8 Plain Text
Duration : 2 h 13 min
Bit rate : 138 b/s
Count of elements : 2370
Stream size : 136 KiB (0%)
Title : Full v.2
Language : Russian
Default : No
Forced : No

Text #4
ID : 10
Format : UTF-8
Codec ID : S_TEXT/UTF8
Codec ID/Info : UTF-8 Plain Text
Duration : 2 h 11 min
Bit rate : 87 b/s
Count of elements : 2783
Stream size : 84.2 KiB (0%)
Title : Full
Language : English
Default : No
Forced : No

Text #5
ID : 11
Format : UTF-8
Codec ID : S_TEXT/UTF8
Codec ID/Info : UTF-8 Plain Text
Duration : 2 h 16 min
Bit rate : 94 b/s
Count of elements : 3072
Stream size : 94.5 KiB (0%)
Title : SDH
Language : English
Default : No
Forced : No

Menu
00:00:00.000 : en:Chapter 01
00:07:57.268 : en:Chapter 02
00:15:41.941 : en:Chapter 03
00:22:57.542 : en:Chapter 04
00:29:59.631 : en:Chapter 05
00:37:01.802 : en:Chapter 06
00:43:27.646 : en:Chapter 07
00:49:34.554 : en:Chapter 08
00:56:07.655 : en:Chapter 09
01:02:35.168 : en:Chapter 10
01:07:09.025 : en:Chapter 11
01:12:45.069 : en:Chapter 12
01:21:00.605 : en:Chapter 13
01:31:12.717 : en:Chapter 14
01:40:04.206 : en:Chapter 15
01:49:48.373 : en:Chapter 16
01:56:06.250 : en:Chapter 17
02:00:46.030 : en:Chapter 18
02:06:52.521 : en:Chapter 19
02:13:47.853 : en:Chapter 20




Скачать Скорая через торрент https://st-kp-yandex-net.translate.goog/images/film_iphone/iphone360_1207170.jpg Скачать, смотреть онлайн Скорая бесплантно в хорошем качестве Описание: Ветеран Уилл Шарп отчаянно нуждается в деньгах, чтобы спасти смертельно больную жену. Он обращается за помощью к ... 10 10 12
Info! Золотая раздача, скачанное не засчитывается.
Торрент: Зарегистрирован [2022-06-16 18:09] · скачан: 555 раз
Статус: √ проверено
Размер: 6.68 GB
Как cкачать? Как скачать Скорая через торрент | UTorrent

% Раздел Тема Автор DL S | L
Фильмы 2022-2023 [DVDrip, WEB-DLRip, HDrip] (DUB, MVO) [ 2.12 GB ] Скорая / Ambulance | Пифагор | BDRip bober100 Скачать
7 | 0
Фильмы 2022-2023 [DVDrip, WEB-DLRip, HDrip] (DUB, MVO) [ 2.43 GB ] Скорая / Ambulance | Jaskier | DLRip-AVC Lithuania Скачать
4 | 0
Фильмы (Blu-ray, BD-Remux, HDDVD) [ 30.62 GB ] Скорая / Ambulance | Jaskier | BD Remux 1080p bober100 Скачать
1 | 0
Фильмы 2022-2023 [DVDrip, WEB-DLRip, HDrip] (DUB, MVO) [ 1.46 GB ] Скорая / Ambulance | Пифагор | BDRip bober100 Скачать
7 | 0
Фильмы 2022-2023 [DVDrip, WEB-DLRip, HDrip] (DUB, MVO) [ 4.55 GB ] Скорая / Ambulance | Jaskier | BDRip-AVC bober100 Скачать
2 | 0
Фильмы 2022-2023 [DVDrip, WEB-DLRip, HDrip] (DUB, MVO) [ 2.18 GB ] Скорая / Ambulance | Jaskier | DLRip bober100 Скачать
3 | 0
Фильмы (Blu-ray, BD-Remux, HDDVD) [ 29.64 GB ] Скорая / Ambulance | Jaskier | BD Remux 1080p bober100 Скачать
1 | 0

28-11-2019 20:33  


Отключить вcю реклaмy на сайте, в т.ч. и в плеере онлайн просмотра!

28-06-2022 19:53 Скорая Скачать торрент  

Раньше было как учебное пособие . Сейчас как бездумная суета беготня и так далее. Чисто если мозг только что рождён - то вот оно кушай.



    Дорогой пользователь! Огромная просьба, поблагодарите релизера, оцените раздачу и оставьте свои комментарий, если Вы скачали Скорая через торрент бесплатно!!
    Комментировать посты могут только пользователи прошедшие не сложную регистрацию
    Показать сообщения:    


    Скорая через торрент
    Скачать бесплатно Скорая
    Скорая скачать торрент
    Скорая смотреть онлайн
    Cкачать фильм Скорая бесплатно
    Скорая скачать торрент в хорошем качестве
    Скорая смотреть онлайн бесплатно в хорошем качестве
    Вы не можете начинать темы
    Вы не можете отвечать на сообщения
    Вы не можете редактировать свои сообщения
    Вы не можете удалять свои сообщения
    Вы не можете голосовать в опросах
    Вы не можете прикреплять файлы к сообщениям
    Вы можете скачивать файлы
    Скорая / Ambulance [2022, Боевик, триллер, драма, криминал, BDRip 720p] Дубляж [Пифагор] +2xMVO [Jaskier, TVShows] +AVO [М. Яроцкий ] смотреть онлайн, скачать торрент picoco.icu