Всегда рабочее зеркало без VPN и Proxy просто перед .vidak.icu напиши любое слово или цифру, Пример http://659x.vidak.icu

MVO

MVO

1 сезон

1

1 сезон

iTunes

1 сезон

13

1 сезон

Deluxe

pack

Рекомендуем

Repack

30

ВАЖНО

RePack

MK11

RePack

jed

RePack

fifa19

RePack

RDR2

RePack

NEED FOR SPEED™ PAYBACK

Кинопоиск HD

6 сезон

 Острые козырьки 6 сезон

Все сериалы

все сериалы на PB.wtf

RePack

FAR CRY 5
  
Magnet ссылка

Становление Елизаветы / Becoming Elizabeth / Сезон 1 / Серии 1-5 из 8 (Джастин Чадвик, Юдайан Прасад, Катрин Морсхэд) [2022, драма, WEB-DL (HEVC)1080p] 2x [MVO] (HDRezka Studio, TVShows) + [Ukr MVO] (DniproFilm) pb.wtf

Становление Елизаветы через торрент pb.wtf

Качают: 1 [ 0 KB/s ]
Размер: 9.17 GB | Добавлен: 23 д. назад | Торрент скачан:10 раз
Смотреть онлайн Становление Елизаветы | Скачать    Ребята, помогите собрать деньги на оплату серверов!!!

17-06-2022 06:35 Становление Елизаветы Скачать торрент  

Становление Елизаветы / Becoming Elizabeth ✦ Год выпуска: 2022
✦ Страна: Великобритания
✦ Жанр: Драма
✦ Продолжительность: ~01:00:00
✦ Перевод #1: Профессиональный (многоголосый) - HDrezka Studio
✦ Перевод #2: Профессиональный (многоголосый) - TVShows
✦ Перевод #3: Профессиональный (многоголосый) - Украинский
✦ Субтитры: английские, русские (forced), украинские (forced)

✦ Режиссеры: Джастин Чадвик, Юдайан Прасад, Катрин Морсхэд

✦ В ролях: Алисия фон Риттберг, Ромола Гарай, Джессика Рэйн, Том Каллен, Белла Рэмси, Джейми Паркер, Оливер Цеттерстрем, Джон Хеффернан (II), Джейми Блэкли, Джейкоб Эйвери

✦ Описание: Юная Елизавета Тюдор, осиротевший подросток, которая втягивается в политическую и сексуальную жизнь английского двора на пути к короне. Смерть короля Генриха VIII приводит в движение опасную борьбу за Влacть. Его оставшиеся в живых дети оказываются пешками в игре между великими семьями Англии и европейскими державами, которые борются за контроль над страной.

rating

✦ Качество: WEB-DL (HEVC)1080p
✦ Формат: MKV
✦ Видео кодек: x.265
✦ Аудио кодек: AC3
✦ Видео: HEVC , 1920x960, 3 000 Kbps, 23,976 fps
✦ Аудио #1 Rus: 48 kHz, AC3, 6 ch, 448 kbps | HDRezka Studio
✦ Аудио #2 Rus: 48 kHz, AC3, 2 ch, 192 kbps | TVShows
✦ Аудио #3 Ukr: 48 kHz, AC3, 6 ch, 384 kbps | DniproFilm
✦ Аудио #4 Eng: 48 kHz, E-AC3, 6 ch, 640 kbps|Original|
скриншот  скриншот  скриншот  скриншот  
eneral
Unique ID : 200688363027335640304668438302096597928 (0x96FB2C3B99DFE2EEBD7425065C7BA3A8)
Complete name : F:\фильмы\Becoming Elizabeth.s01.WEB-DL(HEVC)1080p.xz\Becoming Elizabeth.S01E01.WEB-DL(HEVC)1080p.[HDRezka Studio,TVShows], [UKR].xz.mkv
Format : Matroska
Format version : Version 4
File size : 1.89 GiB
Duration : 58 min 30 s
Overall bit rate : 4 620 kb/s
Movie name : Becoming Elizabeth.S01E01.WEB-DL(HEVC)1080p.[HDRezka Studio,TVShows], [UKR].xz
Encoded date : UTC 2022-07-10 08:43:34
Writing application : mkvmerge v6.1.0 ('Old Devil') built on Mar 2 2013 14:32:37
Writing library : libebml v1.3.0 + libmatroska v1.4.0

Video
ID : 1
Format : HEVC
Format/Info : High Efficiency Video Coding
Format profile : Main [email protected]@Main
Codec ID : V_MPEGH/ISO/HEVC
Duration : 58 min 30 s
Bit rate : 2 864 kb/s
Width : 1 920 pixels
Height : 960 pixels
Display aspect ratio : 2.000
Frame rate mode : Constant
Frame rate : 23.976 FPS
Color space : YUV
Chroma subsampling : 4:2:0
Bit depth : 10 bits
Bits/(Pixel*Frame) : 0.065
Stream size : 1.17 GiB (62%)
Title : Becoming Elizabeth.S01E01.WEB-DL(HEVC)1080p.[HDRezka Studio,TVShows], [UKR].xz
Writing library : x265 3.5+20-17839cc0d:[Windows][GCC 11.2.0][64 bit] 10bit
Encoding settings : cpuid=1111039 / frame-threads=3 / numa-pools=8 / wpp / no-pmode / no-pme / no-psnr / no-ssim / log-level=2 / input-csp=1 / input-res=1920x960 / interlace=0 / total-frames=84159 / level-idc=0 / high-tier=1 / uhd-bd=0 / ref=3 / no-allow-non-conformance / no-repeat-headers / annexb / no-aud / no-eob / no-eos / no-hrd / info / hash=0 / no-temporal-layers / open-gop / min-keyint=23 / keyint=250 / gop-lookahead=0 / bframes=4 / b-adapt=2 / b-pyramid / bframe-bias=0 / rc-lookahead=20 / lookahead-slices=6 / scenecut=40 / no-hist-scenecut / radl=0 / no-splice / no-intra-refresh / ctu=64 / min-cu-size=8 / no-rect / no-amp / max-tu-size=32 / tu-inter-depth=1 / tu-intra-depth=1 / limit-tu=0 / rdoq-level=0 / dynamic-rd=0.00 / no-ssim-rd / signhide / no-tskip / nr-intra=0 / nr-inter=0 / no-constrained-intra / strong-intra-smoothing / max-merge=3 / limit-refs=1 / no-limit-modes / me=1 / subme=2 / merange=57 / temporal-mvp / no-frame-dup / no-hme / weightp / no-weightb / no-analyze-src-pics / deblock=0:0 / sao / no-sao-non-deblock / rd=3 / selective-sao=4 / early-skip / rskip / no-fast-intra / no-tskip-fast / no-cu-lossless / b-intra / no-splitrd-skip / rdpenalty=0 / psy-rd=2.00 / psy-rdoq=0.00 / no-rd-refine / no-lossless / cbqpoffs=0 / crqpoffs=0 / rc=crf / crf=17.4 / qcomp=0.60 / qpstep=4 / stats-write=0 / stats-read=0 / ipratio=1.40 / pbratio=1.30 / aq-mode=2 / aq-strength=1.00 / cutree / zone-count=0 / no-strict-cbr / qg-size=32 / no-rc-grain / qpmax=69 / qpmin=0 / no-const-vbv / sar=0 / overscan=0 / videoformat=5 / range=0 / colorprim=2 / transfer=2 / colormatrix=2 / chromaloc=0 / display-window=0 / cll=0,0 / min-luma=0 / max-luma=1023 / log2-max-poc-lsb=8 / vui-timing-info / vui-hrd-info / slices=1 / no-opt-qp-pps / no-opt-ref-list-length-pps / no-multi-pass-opt-rps / scenecut-bias=0.05 / hist-threshold=0.03 / no-opt-cu-delta-qp / no-aq-motion / no-hdr10 / no-hdr10-opt / no-dhdr10-opt / no-idr-recovery-sei / analysis-reuse-level=0 / analysis-save-reuse-level=0 / analysis-load-reuse-level=0 / scale-factor=0 / refine-intra=0 / refine-inter=0 / refine-mv=1 / refine-ctu-distortion=0 / no-limit-sao / ctu-info=0 / no-lowpass-dct / refine-analysis-type=0 / copy-pic=1 / max-ausize-factor=1.0 / no-dynamic-refine / no-single-sei / no-hevc-aq / no-svt / no-field / qp-adaptation-range=1.00 / scenecut-aware-qp=0conformance-window-offsets / right=0 / bottom=0 / decoder-max-rate=0 / no-vbv-live-multi-pass
Default : Yes
Forced : Yes
Duration_Source : General_Duration

Audio #1
ID : 2
Format : AC-3
Format/Info : Audio Coding 3
Commercial name : Dolby Digital
Codec ID : A_AC3
Duration : 58 min 30 s
Bit rate mode : Constant
Bit rate : 448 kb/s
Channel(s) : 6 channels
Channel layout : L R C LFE Ls Rs
Sampling rate : 48.0 kHz
Frame rate : 31.250 FPS (1536 SPF)
Compression mode : Lossy
Stream size : 187 MiB (10%)
Title : HDR
Language : Russian
Service kind : Complete Main
Default : No
Forced : No
Duration_Source : General_Duration

Audio #2
ID : 3
Format : AC-3
Format/Info : Audio Coding 3
Commercial name : Dolby Digital
Codec ID : A_AC3
Duration : 58 min 30 s
Bit rate mode : Constant
Bit rate : 192 kb/s
Channel(s) : 2 channels
Channel layout : L R
Sampling rate : 48.0 kHz
Frame rate : 31.250 FPS (1536 SPF)
Compression mode : Lossy
Stream size : 80.3 MiB (4%)
Title : TVShows
Language : Russian
Service kind : Complete Main
Default : No
Forced : No
Duration_Source : General_Duration

Audio #3
ID : 4
Format : AC-3
Format/Info : Audio Coding 3
Commercial name : Dolby Digital
Codec ID : A_AC3
Duration : 58 min 30 s
Bit rate mode : Constant
Bit rate : 384 kb/s
Channel(s) : 6 channels
Channel layout : L R C LFE Ls Rs
Sampling rate : 48.0 kHz
Frame rate : 31.250 FPS (1536 SPF)
Compression mode : Lossy
Stream size : 161 MiB (8%)
Title : DniproFilm
Language : Ukrainian
Service kind : Complete Main
Default : No
Forced : No
Duration_Source : General_Duration

Audio #4
ID : 5
Format : E-AC-3
Format/Info : Enhanced AC-3
Commercial name : Dolby Digital Plus
Codec ID : A_EAC3
Duration : 58 min 30 s
Bit rate mode : Constant
Bit rate : 640 kb/s
Channel(s) : 6 channels
Channel layout : L R C LFE Ls Rs
Sampling rate : 48.0 kHz
Frame rate : 31.250 FPS (1536 SPF)
Compression mode : Lossy
Stream size : 268 MiB (14%)
Language : English
Service kind : Complete Main
Default : No
Forced : No
Statistics Tags Issue : mkvmerge v67.0.0 ('Under Stars') 64-bit 2022-06-13 16:02:13 / mkvmerge v6.1.0 ('Old Devil') built on Mar 2 2013 14:32:37 2022-07-10 08:43:34
FromStats_BitRate : 640000
FromStats_Duration : 00:58:30.176000000
FromStats_FrameCount : 109693
FromStats_StreamSize : 280814080
Duration_Source : General_Duration

Text #1
ID : 6
Format : UTF-8
Codec ID : S_TEXT/UTF8
Codec ID/Info : UTF-8 Plain Text
Language : English
Default : No
Forced : No
Statistics Tags Issue : mkvmerge v67.0.0 ('Under Stars') 64-bit 2022-06-13 16:02:13 / mkvmerge v6.1.0 ('Old Devil') built on Mar 2 2013 14:32:37 2022-07-10 08:43:34
FromStats_BitRate : 61
FromStats_Duration : 00:56:54.478000000
FromStats_FrameCount : 883
FromStats_StreamSize : 26131

Text #2
ID : 7
Format : UTF-8
Codec ID : S_TEXT/UTF8
Codec ID/Info : UTF-8 Plain Text
Title : SDH
Language : English
Default : No
Forced : No
Statistics Tags Issue : mkvmerge v67.0.0 ('Under Stars') 64-bit 2022-06-13 16:02:13 / mkvmerge v6.1.0 ('Old Devil') built on Mar 2 2013 14:32:37 2022-07-10 08:43:34
FromStats_BitRate : 70
FromStats_Duration : 00:57:43.360000000
FromStats_FrameCount : 1094
FromStats_StreamSize : 30372

Text #3
ID : 8
Format : UTF-8
Codec ID : S_TEXT/UTF8
Codec ID/Info : UTF-8 Plain Text
Title : forced
Language : Russian
Default : No
Forced : No

Text #4
ID : 9
Format : UTF-8
Codec ID : S_TEXT/UTF8
Codec ID/Info : UTF-8 Plain Text
Title : forced
Language : Ukrainian
Default : No
Forced : No
Когда раздача ведётся путём добавления новых серий, при каждом добавлении создётся новый торрент. Чтобы начать докачку новой серии, пользователям необходимо сделать следующее:

(1) остановить скачивание,

(2) удалить старый торрент у себя из клиента (старые серии удалять не надо),

(3) скачать новый торрент и запустить его у себя в клиенте вместо старого, при этом указать клиенту путь в старую папку, куда и должно происходить скачивание новых серий.

Ваш клиент при этом должен произвести хеширование (проверку) старой папки (если не производит сам - помогите ему сделать это), и будет докачивать только те серии, которых у вас ещё нет. Старые серии при этом не удаляются, а продолжают раздаваться!

Eсли вы уже удалили старые серии, то предотвратить повторную закачку старых серий можно, отжав галочку в соответствующих местах при запуске нового торрента. По возможности, желательно не удалять старые серии как можно дольше, чтобы релизер не столько продолжал раздавать старые серии, а смог сконцентрироваться на новых.
pb.wtf



Скачать Становление Елизаветы через торрент https://i120.fastpic.org/big/2022/0617/82/b51239d42ef12bbc11e545b16ed26c82.jpg Скачать, смотреть онлайн Становление Елизаветы бесплантно в хорошем качестве Описание: Юная Елизавета Тюдор, осиротевший подросток, которая втягивается в политическую и сексуальную жизнь английского двора на пути к ... 7.4 10 7
Торрент: Зарегистрирован [2022-07-14 19:14] · скачан: 10 раз
Статус: √ проверено
Размер: 9.17 GB
Как cкачать? Как скачать Становление Елизаветы через торрент | UTorrent

28-11-2019 20:33  

Отключить вcю реклaмy на сайте

    Дорогой пользователь! Огромная просьба, поблагодарите релизера, оцените раздачу и оставьте свои комментарий, если Вы скачали Становление Елизаветы через торрент бесплатно!
    Комментировать посты могут только пользователи прошедшие не сложную регистрацию
    Показать сообщения:    

    Становление Елизаветы через торрент
    Скачать бесплатно Становление Елизаветы
    Становление Елизаветы скачать торрент
    Становление Елизаветы смотреть онлайн
    Cкачать фильм Становление Елизаветы бесплатно
    Становление Елизаветы скачать торрент в хорошем качестве
    Становление Елизаветы смотреть онлайн бесплатно в хорошем качестве


    Вы не можете начинать темы
    Вы не можете отвечать на сообщения
    Вы не можете редактировать свои сообщения
    Вы не можете удалять свои сообщения
    Вы не можете голосовать в опросах
    Вы не можете прикреплять файлы к сообщениям
    Вы можете скачивать файлы