Всегда рабочее зеркало без VPN и Proxy просто перед .vidak.icu напиши любое слово или цифру, Пример http://o3hn.vidak.icu

MVO

MVO

1 сезон

1

1 сезон

iTunes

1 сезон

13

1 сезон

Deluxe

pack

Рекомендуем

Repack

30

ВАЖНО

RePack

MK11

RePack

jed

RePack

fifa19

RePack

RDR2

RePack

NEED FOR SPEED™ PAYBACK

Кинопоиск HD

6 сезон

 Острые козырьки 6 сезон

Все сериалы

все сериалы на PB.wtf

RePack

FAR CRY 5
  
Magnet ссылка

Соломон Кейн / Solomon Kane [Майкл Дж. Бассетт] [2009 г., фэнтези, боевик, приключения, WEB-DLRip - HEVC 1080p 10 bit 60 FPS, DUB] pb.wtf

Соломон Кейн через торрент pb.wtf

Раздают: 2 [ 0 KB/s ] Качают: 1 [ 0 KB/s ]
Размер: 3.2 GB | Добавлен: 1 мес. 22 д. назад | Торрент скачан:90 раз
Смотреть онлайн Соломон Кейн | Скачать    Ребята, помогите собрать деньги на оплату серверов!!!

17-06-2022 10:23 Соломон Кейн Скачать торрент  

Solomon Kane
«Заключая сделку с дьяволом – готовься к адской расплате»


Год выпуска: 2009
Страна: Франция, Чехия, Великобритания
Жанр: фэнтези, боевик, приключения
Продолжительность: 01:44:15
Перевод: Дублированный | Blu-ray CEE
Субтитры: русские | Blu-ray CEE
Режиссер: Майкл Дж. Бассетт / Michael J. Bassett
В ролях: Джеймс Пьюрфой (Solomon Kane), Макс фон Сюдов (Josiah Kane), Йен Уайт (Devil's Reaper), Джейсон Флеминг (Malachi), Рейчел Херд-Вуд (Meredith Crowthorn), Пит Постлетуэйт (William Crowthorn), Элис Крайдж (Katherine Crowthorn), Макензи Крук (Father Michael), Энтони Уилкс (Edward Crowthorn), Роберт Расселл (Abbott), Марк О’Нил (Kane's Soldier #1), Роберт Орр (Kane's Soldier #2)
Описание:
По мотивам рассказов Роберта Ирвина Говарда. Соломон Кейн — английский солдат XVI века, который осознал, что его бесчеловечные и жестокие поступки навечно прокляли его душу. Вознамерившись искупить свои грехи, Кейн клянется жить в мире и добродетели, но когда на землю ступают темные силы, ему не остается ничего, как дать бой.
Мировая премьера: 16 сентября 2009

Качество: WEB-DLRip - HEVC 1080p Rip by DD2D3
Видео: V_MPEGH/ISO/HEVC; 1920x1080 (16:9); 3663 Kbps; 60 fps; 0,029 bpp
Аудио: русский; AC3; 640 Kbps; CBR; 6 ch ||
Навигация по главам: есть
Доп. информация Open matte


Общее
Уникальный идентификатор : 228496301810713830252008441337503526416 (0xABE6C977C6DFC0B5A7578A535583AE10)
Полное имя : D:\Solomon Kane (2009) [Open Matte] WEB-DLRip - HEVC 1080p 10 bit 60 FPS.mkv
Формат : Matroska
Версия формата : Version 2
Размер файла : 3,20 Гбайт
Продолжительность : 1 ч. 44 м.
Общий поток : 4 391 Кбит/сек
Название фильма : Rip by from DD2D3
Дата кодирования : UTC 2022-06-17 09:25:37
Программа кодирования : mkvmerge v6.9.1 ('Blue Panther') 32bit built on Apr 18 2014 18:15:44
Библиотека кодирования : libebml v1.3.0 + libmatroska v1.4.1
Attachments : poster

Видео
Идентификатор : 1
Формат : HEVC
Формат/Информация : High Efficiency Video Coding
Профиль формата : Main [email protected]@Main
Идентификатор кодека : V_MPEGH/ISO/HEVC
Продолжительность : 1 ч. 44 м.
Битрейт : 3 663 Кбит/сек
Ширина : 1 920 пикселей
Высота : 1 080 пикселей
Соотношение сторон : 16:9
Режим частоты кадров : Постоянный
Частота кадров : 60,000 кадров/сек
Цветовое пространство : YUV
Субдискретизация насыщенности : 4:2:0
Битовая глубина : 10 бит
Бит/(Пиксели*Кадры) : 0.029
Размер потока : 2,67 Гбайт (83%)
Default : Да
Forced : Нет

Аудио
Идентификатор : 2
Формат : AC-3
Формат/Информация : Audio Coding 3
Коммерческое название : Dolby Digital
Идентификатор кодека : A_AC3
Продолжительность : 1 ч. 44 м.
Вид битрейта : Постоянный
Битрейт : 640 Кбит/сек
Каналы : 6 каналов
Channel layout : L R C LFE Ls Rs
Частота : 48,0 КГц
Частота кадров : 31,250 кадров/сек (1536 SPF)
Метод сжатия : С потерями
Размер потока : 477 Мбайт (15%)
Заголовок : DUB - Blu-ray CEE
Язык : Russian
Service kind : Complete Main
Default : Да
Forced : Нет
Statistics Tags Issue : mkvmerge v41.0.0 ('Smarra') 64-bit 2019-12-29 10:36:36 / mkvmerge v6.9.1 ('Blue Panther') 32bit built on Apr 18 2014 18:15:44 2022-06-17 09:25:37
FromStats_BitRate : 640000
FromStats_Duration : 01:44:15.712000000
FromStats_FrameCount : 195491
FromStats_StreamSize : 500456960

Текст
Идентификатор : 3
Формат : UTF-8
Идентификатор кодека : S_TEXT/UTF8
Идентификатор кодека/Информация : UTF-8 Plain Text
Заголовок : По Дубляжу
Язык : Russian
Default : Нет
Forced : Нет
Statistics Tags Issue : mkvmerge v41.0.0 ('Smarra') 64-bit 2019-12-29 10:36:36 / mkvmerge v6.9.1 ('Blue Panther') 32bit built on Apr 18 2014 18:15:44 2022-06-17 09:25:37
FromStats_BitRate : 54
FromStats_Duration : 01:34:33.591000000
FromStats_FrameCount : 769
FromStats_StreamSize : 38435

Меню
00:00:00.000 : :Глава 01
00:07:30.000 : :Глава 02
00:15:00.000 : :Глава 03
00:22:30.000 : :Глава 04
00:30:00.000 : :Глава 05
00:37:30.000 : :Глава 06
00:45:00.000 : :Глава 07
00:52:30.000 : :Глава 08
01:00:00.000 : :Глава 09
01:07:30.000 : :Глава 10
01:15:00.000 : :Глава 11
01:22:30.000 : :Глава 12
01:30:00.000 : :Глава 13
01:37:30.000 : :Глава 14
скриншот  скриншот  скриншот  скриншот  

© Оформление by DD2D3
pb.wtf



Скачать Соломон Кейн через торрент http://images.vfl.ru/ii/1655460844/ba0274f6/38447650.jpg Скачать, смотреть онлайн Соломон Кейн бесплантно в хорошем качестве Описание: По мотивам рассказов Роберта Ирвина Говарда. Соломон Кейн — английский солдат XVI века, который осознал, что его бесчеловечные и ... 8.7 10 7
Торрент: Зарегистрирован [2022-06-17 10:23] · скачан: 90 раз
Статус: √ проверено
Размер: 3.2 GB
Как cкачать? Как скачать Соломон Кейн через торрент | UTorrent

% Раздел Тема Автор DL S | L
Фильмы (HD 720p, 1080p) (48-60 fps) [ 3.99 GB ] Соломон Кейн / Solomon Kane [2009 WEB-DLRip 720p / 60 FPS ] от R.G. HD-Films slaventi-69 Скачать
1 | 0
Фильмы [HD 720p, 1080p] (Хороший звук DUB, MVO) [ 5.76 GB ] Соломон Кейн / Solomon Kane [2009 BDRip 720p] DUB [] +AVO [Ю.Немахов] bober100 Скачать
1 | 0
Фильмы 2009 [ 1.46 GB ] Соломон Кейн / Solomon Kane [2009 BDRip-AVC] DUB + Sub potroks Скачать
1 | 0
Фильмы (Blu-ray, BD-Remux, HDDVD) [ 40.64 GB ] Соломон Кейн / Solomon Kane [2009 Blu-ray 1080p] DUB Зайчина Скачать
1 | 0
Фильмы 2009 [ 1.45 GB ] Соломон Кейн / Solomon Kane [2009 HDRip] DUB -=BIGBOSS=- Скачать
1 | 0
Фильмы 2009 [ 1.46 GB ] Соломон Кейн / Solomon Kane [2009 HDRip лицензия] SD Скачать
1 | 0
Фильмы [HD 720p, 1080p] (Хороший звук DUB, MVO) [ 6.29 GB ] Соломон Кейн / Solomon Kane [2009 BDRip ] [email protected]$on Скачать
1 | 0

28-11-2019 20:33  

Отключить вcю реклaмy на сайте

17-06-2022 14:49 Соломон Кейн Скачать торрент  

скриншоты просто огонь pb.wtf



17-06-2022 15:37 Соломон Кейн Скачать торрент  

HakypeHHblu_KoT писал(а):

скриншоты просто огонь

вечно они не получаются, да и с такими можно жить, меня больше интересует качества и прочие нюансы фильмаpb.wtf



18-06-2022 15:55 Соломон Кейн Скачать торрент  

зависает картинка и не первый раз в твоих релизахpb.wtf



    Дорогой пользователь! Огромная просьба, поблагодарите релизера, оцените раздачу и оставьте свои комментарий, если Вы скачали Соломон Кейн через торрент бесплатно!
    Комментировать посты могут только пользователи прошедшие не сложную регистрацию
    Показать сообщения:    

    Соломон Кейн через торрент
    Скачать бесплатно Соломон Кейн
    Соломон Кейн скачать торрент
    Соломон Кейн смотреть онлайн
    Cкачать фильм Соломон Кейн бесплатно
    Соломон Кейн скачать торрент в хорошем качестве
    Соломон Кейн смотреть онлайн бесплатно в хорошем качестве


    Вы не можете начинать темы
    Вы не можете отвечать на сообщения
    Вы не можете редактировать свои сообщения
    Вы не можете удалять свои сообщения
    Вы не можете голосовать в опросах
    Вы не можете прикреплять файлы к сообщениям
    Вы можете скачивать файлы