Всегда рабочее зеркало без VPN и Proxy просто перед .vidak.icu напиши любое слово или цифру, Пример http://9nwq.vidak.icu

MVO

MVO

1 сезон

1

1 сезон

iTunes

1 сезон

13

1 сезон

Deluxe

pack

Рекомендуем

Repack

30

ВАЖНО

RePack

MK11

RePack

jed

RePack

fifa19

RePack

RDR2

RePack

NEED FOR SPEED™ PAYBACK

Кинопоиск HD

6 сезон

 Острые козырьки 6 сезон

Все сериалы

все сериалы на PB.wtf

RePack

FAR CRY 5
  
Magnet ссылка

Ликвидация (14 серий из 14) (Сергей Урсуляк) [2007 г., триллер, боевик, WEB-DLRip-AVC] от ExKinoRay pb.wtf

Ликвидация через торрент pb.wtf

Раздают: 1 [ 0 KB/s ]
Размер: 12.46 GB | Добавлен: 1 мес. 24 д. назад | Торрент скачан:54 раза
Смотреть онлайн Ликвидация | Скачать    Ребята, помогите собрать деньги на оплату серверов!!!

18-06-2022 03:17 Ликвидация Скачать торрент  


Ликвидация
Информация о фильме:
Название: Ликвидация
Год выхода: 2007
Жанр: детектив
Режиссер: Сергей Урсуляк
В ролях: Владимир Машков, Михаил Пореченков, Владимир Меньшов, Сергей Маковецкий, Светлана Крючкова, Юрий Лахин, Александр Сирин, Константин Лавроненко, Константин Желдин, Полина Агуреева, Лика Нифонтова, Ксения Раппопорт, Диана Малая, Виктор Смирнов, Фёдор Добронравов, Борис Каморзин, Александр Голубев, Виктор Супрун, Андрей Бронников, Сергей Угрюмов, Алексей Кирющенко, Александр Семчев, Максим Дрозд, Николай Спиридонов, Олег Басилашвили, Юрий Авшаров, Олег Кассин, Валерий Трошин, Беата Маковская, Сергей Рубеко, Виктор Соловьёв, Геннадий Чулков, Пётр Меркурьев, Владимир Юматов, Станислав Стрелков, Алексей Жиров, Александр Матросов, Сергей Неудачин, Евгений Куршинский, Виктор Тереля, Роман Крюков, Станислав Лесной, Вячеслав Молоков, Олег Семисынов, Виктор Лысенко, Александр Ковалёв, Олег Кулаев, Константин Балакирев, Тимофей Трибунцев, Артём Осипов, Кирилл Кяро, Александр Чернявский (II), Александр Карпиловский, Наталья Рожкова, Богдан Бенюк, Григорий Данцигер, Владимир Михайловский, Александр Карамнов, Святослав Чирков, Наталья Карпунина, Виктор Пасечник, Павел Ворожцов, Игорь Ларин, Альберт Каспарянц, Всеволод Кабанов, Андрей Щенников, Валентин Козачков, Андрей Шибаршин, Юрий Мазихин, Валерий Легин

Описание: Лето 1946 года. Маршал Жуков в опале. Он отправлен в ссылку в Одессу, где нет житья от воров, убийц и вымогателей, а дерзкая безжалостная банда «Степные волки» повадилась грабить военные склады. И всем заправляет неуловимый немецкий шпион «Академик», которого никто не знает в лицо. И только начальник угрозыска Давид Гоцман и Георгий Жуков могут спасти город. Они задумывают сложную и опасную операцию…



Страна: Россия
Студия: ЗАО "Централ Партнершип", студия "Дед Мороз"
Продолжительность: 14 x ~ 00:45:00
Перевод: Оригинал



Информация о файле:
Кодек: AVC
Формат: MKV
Качество: WEB-DLRip-AVC
Видео: MPEG-4 AVC, 960x576, 25,000 fps, 2350 kbps
Аудио RU: AC3, 6 ch, 48 kHz, 384 kbps



General
Unique ID : 97919959302645251798212309725202842752 (0x49AAB2BBC149A3D837F71CA31EAB8480)
Complete name : D:uTorrentLekvidacija rip by wolf1245.ExKinoRayLekvidacija.2007.RUS.x264.Seria2.WEB-DLRip-AVC.[wolf1245.ExKinoRay].mkv
Format : Matroska
Format version : Version 4
File size : 883 MiB
Duration : 45 min 9 s
Overall bit rate : 2 733 kb/s
Movie name : Lekvidacija.2007.RUS.x264.Seria2.WEB-DLRip-AVC.[wolf1245.ExKinoRay]
Encoded date : UTC 2022-06-17 16:47:00
Writing application : mkvmerge v68.0.0 ('The Curtain') 64-bit
Writing library : libebml v1.4.2 + libmatroska v1.6.4

Video
ID : 1
Format : AVC
Format/Info : Advanced Video Codec
Format profile : [email protected]
Format settings : CABAC / 10 Ref Frames
Format settings, CABAC : Yes
Format settings, Reference frames : 10 frames
Codec ID : V_MPEG4/ISO/AVC
Duration : 45 min 9 s
Bit rate : 2 350 kb/s
Width : 960 pixels
Height : 576 pixels
Display aspect ratio : 5:3
Frame rate mode : Constant
Frame rate : 25.000 FPS
Color space : YUV
Chroma subsampling : 4:2:0
Bit depth : 8 bits
Scan type : Progressive
Bits/(Pixel*Frame) : 0.170
Stream size : 759 MiB (86%)
Title : -=[wolf1245.ExKinoRay]=-
Writing library : x264 core 163 r3060 5db6aa6
Encoding settings : cabac=1 / ref=10 / deblock=1:-2:-2 / analyse=0x3:0x133 / me=umh / subme=10 / psy=1 / psy_rd=0.98:0.15 / mixed_ref=1 / me_range=32 / chroma_me=1 / trellis=2 / 8x8dct=1 / cqm=0 / deadzone=22,11 / fast_pskip=1 / chroma_qp_offset=-3 / threads=10 / lookahead_threads=2 / sliced_threads=0 / nr=0 / decimate=0 / interlaced=0 / bluray_compat=0 / constrained_intra=0 / bframes=10 / b_pyramid=2 / b_adapt=2 / b_bias=0 / direct=3 / weightb=1 / open_gop=0 / weightp=2 / keyint=250 / keyint_min=25 / scenecut=40 / intra_refresh=0 / rc_lookahead=150 / rc=2pass / mbtree=0 / bitrate=2350 / ratetol=1.0 / qcomp=0.60 / qpmin=0 / qpmax=69 / qpstep=4 / cplxblur=20.0 / qblur=0.5 / vbv_maxrate=50000 / vbv_bufsize=62500 / nal_hrd=none / filler=0 / ip_ratio=1.40 / pb_ratio=1.30 / aq=1:1.00
Language : Russian
Default : Yes
Forced : No

Audio
ID : 2
Format : AC-3
Format/Info : Audio Coding 3
Commercial name : Dolby Digital
Codec ID : A_AC3
Duration : 45 min 2 s
Bit rate mode : Constant
Bit rate : 384 kb/s
Channel(s) : 6 channels
Channel layout : L R C LFE Ls Rs
Sampling rate : 48.0 kHz
Frame rate : 31.250 FPS (1536 SPF)
Compression mode : Lossy
Delay relative to video : 40 ms
Stream size : 124 MiB (14%)
Title : RUS | Original
Language : Russian
Service kind : Complete Main
Default : Yes
Forced : No
Релиз от:

Автор релиза:
pb.wtf



Скачать Ликвидация через торрент https://i5.imageban.ru/out/2022/06/17/f99feabff22e3b06d1691352ac257ac3.png Скачать, смотреть онлайн Ликвидация бесплантно в хорошем качестве Описание: Лето 1946 года. Маршал Жуков в опале. Он отправлен в ссылку в Одессу, где нет житья от воров, убийц и вымогателей, а дерзкая ... 10 10 5
Info! Золотая раздача, скачанное не засчитывается.
Торрент: Зарегистрирован [2022-06-18 03:17] · скачан: 54 раз
Статус: √ проверено
Размер: 12.46 GB
Как cкачать? Как скачать Ликвидация через торрент | UTorrent

28-11-2019 20:33  

Отключить вcю реклaмy на сайте

18-06-2022 06:43 Ликвидация Скачать торрент  

было приятно в который раз пересматривать.и почему такое путевое кино-такая редкость.?pb.wtf



18-06-2022 08:34 Ликвидация Скачать торрент  

Однозначно золотоpb.wtf



    Дорогой пользователь! Огромная просьба, поблагодарите релизера, оцените раздачу и оставьте свои комментарий, если Вы скачали Ликвидация через торрент бесплатно!
    Комментировать посты могут только пользователи прошедшие не сложную регистрацию
    Показать сообщения:    

    Ликвидация через торрент
    Скачать бесплатно Ликвидация
    Ликвидация скачать торрент
    Ликвидация смотреть онлайн
    Cкачать фильм Ликвидация бесплатно
    Ликвидация скачать торрент в хорошем качестве
    Ликвидация смотреть онлайн бесплатно в хорошем качестве


    Вы не можете начинать темы
    Вы не можете отвечать на сообщения
    Вы не можете редактировать свои сообщения
    Вы не можете удалять свои сообщения
    Вы не можете голосовать в опросах
    Вы не можете прикреплять файлы к сообщениям
    Вы можете скачивать файлы