Всегда рабочее зеркало без VPN и Proxy просто перед .vidak.icu напиши любое слово или цифру, Пример http://tzki.vidak.icu

Лицензия

MVO

1 сезон

1

1 сезон

iTunes

1 сезон

13

1 сезон

Deluxe

pack

Рекомендуем

Repack

30

ВАЖНО

RePack

MK11

RePack

jed

RePack

fifa19

RePack

RDR2

RePack

NEED FOR SPEED™ PAYBACK

Кинопоиск HD

6 сезон

 Острые козырьки 6 сезон

Все сериалы

все сериалы на PB.wtf

RePack

FAR CRY 5
  
Magnet ссылка

Старик / The Old Man / Сезон: 1 / Серии: 1-7 из 7 (Джон Уоттс, Джет Уилкинсон, Зетна Фуэнтес) [2022, Боевик, триллер, драма, WEB-DL 1080p] [MVO] (HDRezka Studio) + [AVO] (Ю.Сербин) + [Ukr MVO] (DniproFilm) pb.wtf

Старик через торрент pb.wtf

Раздают: 2 [ 0 KB/s ] Качают: 2 [ 0 KB/s ]
Размер: 18.1 GB | Добавлен: 18 д. назад | Торрент скачан:25 раз
Смотреть онлайн Старик | Скачать    Ребята, помогите собрать деньги на оплату серверов!!!

18-06-2022 05:50 Старик Скачать торрент  

Старик / The Old Man
Год выпуска: 2022
Страна: США
Жанр: Боевик, триллер, драма
Продолжительность: ~ 01:00:00
Перевод: #1 Профессиональный (многоголосый закадровый) - HDRezka Studio
Перевод: #2 Авторский (одноголосый закадровый) - Юрий Сербин
Перевод: #3 Профессиональный (многоголосый) - Украинский
Субтитры: русские (full, forced), английские

Режиссёр: Джон Уоттс, Джет Уилкинсон, Зетна Фуэнтес

В ролях: Джефф Бриджес, Педж Вахдат, Джон Литгоу, Noor Razooky, Э.Дж. Бонилья, Алиа Шокат, Гбенга Акиннагбе, Билл Хек, Фаран Таир, Этан Рэйнс

Описание: Дэн Чейз — оперативник ЦРУ, который уже несколько десятилетий как оставил службу. Однажды на пороге его дома появляется группа убийц, присланных устранить Чейза, он понимает, что прошлое вновь напомнило о себе. Чтобы сохранить своё будущее, Чейз теперь должен опять взяться за оружие.

rating скриншот  

Качество: WEB-DL 1080p
Кодек: MKV
Видео: MPEG-4 AVC, 1920х1080, ~ 4 900 Кбит/с, 23,976 fps
Аудио #1: 48 kHz, AC3, 6 ch, ~448 kbps - HDRezka Studio
Аудио #2: 48 kHz, AC3, 6 ch, ~448 kbps - Ю.Сербин
Аудио #3: 48 kHz, AC3, 6 ch, ~384 kbps -
Аудио #4: 48 kHz, E-AC3, 6 ch, ~640 kbps - English
скриншот  скриншот  скриншот  
General
Unique ID : 183526119053802771494716160033821305526 (0x8A11D846892475D98CB2214A4B182AB6)
Complete name : The Old Man.s01.WEB-DL(1080p).xz\The Old Man.S01E01.WEB-DL(1080p).[HDRezka Studio], [Serbin], [Ukr].xz.mkv
Format : Matroska
Format version : Version 4
File size : 2.93 GiB
Duration : 1 h 1 min
Overall bit rate : 6 815 kb/s
Movie name : The Old Man.S01E01.WEB-DL(1080p).[HDRezka Studio], [Serbin], [Ukr].xz
Encoded date : UTC 2022-06-21 09:52:41
Writing application : mkvmerge v6.1.0 ('Old Devil') built on Mar 2 2013 14:32:37
Writing library : libebml v1.3.0 + libmatroska v1.4.0

Video
ID : 1
Format : AVC
Format/Info : Advanced Video Codec
Format profile : [email protected]
Format settings : CABAC / 4 Ref Frames
Format settings, CABAC : Yes
Format settings, Reference : 4 frames
Codec ID : V_MPEG4/ISO/AVC
Duration : 1 h 1 min
Bit rate mode : Constant
Bit rate : 4 760 kb/s
Nominal bit rate : 10 000 kb/s
Width : 1 920 pixels
Height : 1 080 pixels
Display aspect ratio : 16:9
Frame rate mode : Constant
Frame rate : 23.976 (24000/1001) FPS
Color space : YUV
Chroma subsampling : 4:2:0
Bit depth : 8 bits
Scan type : Progressive
Bits/(Pixel*Frame) : 0.096
Stream size : 2.04 GiB (70%)
Title : The Old Man.S01E01.WEB-DL(1080p).[HDRezka Studio], [Serbin], [Ukr].xz
Default : Yes
Forced : No
Color range : Limited
Color primaries : BT.709
Transfer characteristics : BT.709
Matrix coefficients : BT.709
Statistics Tags Issue : mkvmerge v68.0.0 ('The Curtain') 64-bit / mkvmerge v6.1.0 ('Old Devil') built on Mar 2 2013 14:32:37 2022-06-21 09:52:41
FromStats_BitRate : 4892299
FromStats_Duration : 01:01:27.684000000
FromStats_FrameCount : 88416
FromStats_StreamSize : 2255156801
Duration_Source : General_Duration

Audio #1
ID : 2
Format : AC-3
Format/Info : Audio Coding 3
Commercial name : Dolby Digital
Codec ID : A_AC3
Duration : 1 h 1 min
Bit rate mode : Constant
Bit rate : 448 kb/s
Channel(s) : 6 channels
Channel layout : L R C LFE Ls Rs
Sampling rate : 48.0 kHz
Frame rate : 31.250 FPS (1536 SPF)
Compression mode : Lossy
Stream size : 197 MiB (7%)
Title : HDR
Language : Russian
Service kind : Complete Main
Default : No
Forced : No
Duration_Source : General_Duration

Audio #2
ID : 3
Format : AC-3
Format/Info : Audio Coding 3
Commercial name : Dolby Digital
Codec ID : A_AC3
Duration : 1 h 1 min
Bit rate mode : Constant
Bit rate : 448 kb/s
Channel(s) : 6 channels
Channel layout : L R C LFE Ls Rs
Sampling rate : 48.0 kHz
Frame rate : 31.250 FPS (1536 SPF)
Compression mode : Lossy
Stream size : 197 MiB (7%)
Title : Serbin
Language : Russian
Service kind : Complete Main
Default : No
Forced : No
Duration_Source : General_Duration

Audio #3
ID : 4
Format : AC-3
Format/Info : Audio Coding 3
Commercial name : Dolby Digital
Codec ID : A_AC3
Duration : 1 h 1 min
Bit rate mode : Constant
Bit rate : 384 kb/s
Channel(s) : 6 channels
Channel layout : L R C LFE Ls Rs
Sampling rate : 48.0 kHz
Frame rate : 31.250 FPS (1536 SPF)
Compression mode : Lossy
Stream size : 169 MiB (6%)
Title : DniproFilm
Language : Ukrainian
Service kind : Complete Main
Default : No
Forced : No
Duration_Source : General_Duration

Audio #4
ID : 5
Format : E-AC-3
Format/Info : Enhanced AC-3
Commercial name : Dolby Digital Plus
Codec ID : A_EAC3
Duration : 1 h 1 min
Bit rate mode : Constant
Bit rate : 640 kb/s
Channel(s) : 6 channels
Channel layout : L R C LFE Ls Rs
Sampling rate : 48.0 kHz
Frame rate : 31.250 FPS (1536 SPF)
Compression mode : Lossy
Delay relative to video : 16 ms
Stream size : 281 MiB (9%)
Language : English
Service kind : Complete Main
Default : No
Forced : No
Statistics Tags Issue : mkvmerge v68.0.0 ('The Curtain') 64-bit / mkvmerge v6.1.0 ('Old Devil') built on Mar 2 2013 14:32:37 2022-06-21 09:52:41
FromStats_BitRate : 640000
FromStats_Duration : 01:01:27.680000000
FromStats_FrameCount : 115240
FromStats_StreamSize : 295014400
Duration_Source : General_Duration

Text #1
ID : 6
Format : UTF-8
Codec ID : S_TEXT/UTF8
Codec ID/Info : UTF-8 Plain Text
Language : English
Default : No
Forced : No
Statistics Tags Issue : mkvmerge v68.0.0 ('The Curtain') 64-bit / mkvmerge v6.1.0 ('Old Devil') built on Mar 2 2013 14:32:37 2022-06-21 09:52:41
FromStats_BitRate : 57
FromStats_Duration : 00:57:07.555000000
FromStats_FrameCount : 724
FromStats_StreamSize : 24743

Text #2
ID : 7
Format : UTF-8
Codec ID : S_TEXT/UTF8
Codec ID/Info : UTF-8 Plain Text
Title : SDH
Language : English
Default : No
Forced : No
Statistics Tags Issue : mkvmerge v68.0.0 ('The Curtain') 64-bit / mkvmerge v6.1.0 ('Old Devil') built on Mar 2 2013 14:32:37 2022-06-21 09:52:41
FromStats_BitRate : 61
FromStats_Duration : 01:01:16.891000000
FromStats_FrameCount : 888
FromStats_StreamSize : 28409

Text #3
ID : 8
Format : UTF-8
Codec ID : S_TEXT/UTF8
Codec ID/Info : UTF-8 Plain Text
Title : forced
Language : Russian
Default : No
Forced : No

Text #4
ID : 9
Format : UTF-8
Codec ID : S_TEXT/UTF8
Codec ID/Info : UTF-8 Plain Text
Title : full
Language : Russian
Default : No
Forced : No

Menu
00:00:00.000 : en:Begin
00:17:16.935 : en:Chapter 1
00:25:19.935 : en:Chapter 2
00:33:32.935 : en:Chapter 3
00:39:19.935 : en:Chapter 4
00:59:10.935 : en:Chapter 5 - Credits
Когда раздача ведётся путём добавления новых серий, при каждом добавлении создётся новый торрент. Чтобы начать докачку новой серии, пользователям необходимо сделать следующее:

(1) остановить скачивание,

(2) удалить старый торрент у себя из клиента (старые серии удалять не надо),

(3) скачать новый торрент и запустить его у себя в клиенте вместо старого, при этом указать клиенту путь в старую папку, куда и должно происходить скачивание новых серий.

Ваш клиент при этом должен произвести хеширование (проверку) старой папки (если не производит сам - помогите ему сделать это), и будет докачивать только те серии, которых у вас ещё нет. Старые серии при этом не удаляются, а продолжают раздаваться!

Eсли вы уже удалили старые серии, то предотвратить повторную закачку старых серий можно, отжав галочку в соответствующих местах при запуске нового торрента. По возможности, желательно не удалять старые серии как можно дольше, чтобы релизер не столько продолжал раздавать старые серии, а смог сконцентрироваться на новых.
pb.wtf



Скачать Старик через торрент https://i120.fastpic.org/big/2022/0617/ad/c8a0131fdb91db11ba534f56107435ad.jpeg Скачать, смотреть онлайн Старик бесплантно в хорошем качестве Описание: Дэн Чейз — оперативник ЦРУ, который уже несколько десятилетий как оставил службу. Однажды на пороге его дома появляется группа ... 7.9 10 14
Торрент: Зарегистрирован [2022-07-27 06:38] · скачан: 25 раз
Статус: √ проверено
Размер: 18.1 GB
Как cкачать? Как скачать Старик через торрент | UTorrent

% Раздел Тема Автор DL S | L
Зарубежные сериалы [ 5.75 GB ] Старик / The Old Man / Сезон: 1 / Серии: 1-7 из 7 [2022 WEB-DLRip] MVO [LostFilm] bober100 Скачать
1 | 0
Зарубежные сериалы [ 17.93 GB ] Старик / The Old Man / Сезон: 1 / Серии: 1-7 из 7 [2022 WEB-DL 1080p] 3xMVO [LostFilm HDRezka Studio NewStudio] GEKADOL Скачать
3 | 0
Зарубежные сериалы [ 4.66 GB ] Старик / The Old Man / Сезон: 1 / Серии: 1-7 из 7 [2022 WEB-DLRip-AVC] MVO [LostFilm] bober100 Скачать
3 | 0
Зарубежные сериалы [ 4.55 GB ] Старик / The Old Man / Сезон: 1 / Серии: 1-7 из 7 [2022 WEBRip] MVO [HDRezka Studio] bober100 Скачать
6 | 5
Зарубежные сериалы [ 16.7 GB ] Старик / The Old Man / Сезон: 1 / Серии: 1-7 из 7 [2022 WEB-DL 1080p] MVO [NewStudio] bober100 Скачать
5 | 0
Зарубежные сериалы [ 10.56 GB ] Старик / The Old Man / Сезон: 1 / Серии: 1-7 из 7 [2022 WEB-DL 720p] 2xMVO [NewStudio HDRezka Studio] bober100 Скачать
4 | 0

28-11-2019 20:33  

Отключить вcю реклaмy на сайте

    Дорогой пользователь! Огромная просьба, поблагодарите релизера, оцените раздачу и оставьте свои комментарий, если Вы скачали Старик через торрент бесплатно!
    Комментировать посты могут только пользователи прошедшие не сложную регистрацию
    Показать сообщения:    

    Старик через торрент
    Скачать бесплатно Старик
    Старик скачать торрент
    Старик смотреть онлайн
    Cкачать фильм Старик бесплатно
    Старик скачать торрент в хорошем качестве
    Старик смотреть онлайн бесплатно в хорошем качестве


    Вы не можете начинать темы
    Вы не можете отвечать на сообщения
    Вы не можете редактировать свои сообщения
    Вы не можете удалять свои сообщения
    Вы не можете голосовать в опросах
    Вы не можете прикреплять файлы к сообщениям
    Вы можете скачивать файлы