Всегда рабочее зеркало без VPN и Proxy просто перед .vidak.icu напиши любое слово или цифру, Пример http://n4br.vidak.icu

MVO

Лицензия

1 сезон

1

1 сезон

iTunes

1 сезон

13

1 сезон

Deluxe

pack

Рекомендуем

Пиратка

30

ВАЖНО

RePack

MK11

RePack

jed

RePack

fifa19

RePack

RDR2

RePack

NEED FOR SPEED™ PAYBACK

Кинопоиск HD

6 сезон

 Острые козырьки 6 сезон

Все сериалы

все сериалы на PB.wtf

RePack

FAR CRY 5

Anonymous, нам критически не хватает 2100 руб. на оплату серверов и переферии за МАЙ, помоги нам пожалуйста, вся надежда только на тебя. В благодарность мы отключим тебе всю рекламу на сайте!

×
  
Magnet ссылка

Аббатство Даунтон 2 / Downton Abbey: A New Era (Саймон Кёртис) [2022, драма, мелодрама, WEBRip-AVC] MVO [Jaskier] от ExKinoRay pb.wtf

Аббатство Даунтон 2 через торрент pb.wtf

Раздают: 6 [ 0 KB/s ]
Размер: 1.95 GB | Добавлен: 6 д. назад | Торрент скачан:36 раз
Смотреть онлайн Аббатство Даунтон 2 | Скачать    Ребята, помогите собрать деньги на оплату серверов!!!

19-06-2022 18:13 Аббатство Даунтон 2 Скачать торрент  


Аббатство Даунтон 2 / Downton Abbey: A New Era
Информация о фильме:
Название: Аббатство Даунтон 2
Оригинальное название: Downton Abbey: A New Era
Год выхода: 2022
Жанр: драма, мелодрама
Режиссер: Саймон Кёртис
В ролях: Аллен Лич, Таппенс Мидлтон, Эва Саммс, Карина Сэммс, Имелда Стонтон, Фифи Харт, Оливер Баркер, Зак Баркер, Элизабет МакГоверн, Хью Бонневилль

Описание: Вдовствующая графиня Вайолет Кроули получает в наследство роскошную виллу на юге Франции, и вся семья отправляется в грандиозное путешествие, чтобы раскрыть тайны новых владений. Тем временем в аббатстве Даунтон начинаются съёмки художественного фильма, и обитателям поместья приходится смириться с тем, что в Даунтон проник современный мир. Фильм является продолжением картины «Аббатство Даунтон» и связан с одноимённым телесериалом.



Страна: Великобритания, США
Студия: Universal Pictures, Carnival Film & Television
Продолжительность: 02:04:56
Перевод: Профессиональный (многоголосый, закадровый) - Jaskier



Информация о файле:
Кодек: AVC
Формат: MKV
Качество: WEBRip-AVC
Видео: MPEG-4 AVC, 1024x426, 25.000 fps, 1890 kbps
Аудио RU: AC3, 6 ch, 48 kHz, 384 kbps
Субтитры: Русские (Full, SDH)



General
Unique ID : 141103062684073431930115728159423048849 (0x6A27761C22781F6C90515CFE0A93AC91)
Complete name : D:uTorrentРипы wolf1245Downton.Abbey.A.New.Era.2022.MVO.Jaskier.x264.WEBRip-AVC.[wolf1245.ExKinoRay].mkv
Format : Matroska
Format version : Version 4
File size : 1.95 GiB
Duration : 2 h 4 min
Overall bit rate : 2 236 kb/s
Movie name : Downton.Abbey.A.New.Era.2022.MVO.Jaskier.x264.WEBRip-AVC.[wolf1245.ExKinoRay]
Encoded date : UTC 2022-06-18 18:24:49
Writing application : mkvmerge v68.0.0 ('The Curtain') 64-bit
Writing library : libebml v1.4.2 + libmatroska v1.6.4

Video
ID : 1
Format : AVC
Format/Info : Advanced Video Codec
Format profile : High@L4.1
Format settings : CABAC / 10 Ref Frames
Format settings, CABAC : Yes
Format settings, Reference frames : 10 frames
Codec ID : V_MPEG4/ISO/AVC
Duration : 2 h 4 min
Bit rate : 1 850 kb/s
Width : 1 024 pixels
Height : 426 pixels
Display aspect ratio : 2.40:1
Frame rate mode : Constant
Frame rate : 23.976 (24000/1001) FPS
Color space : YUV
Chroma subsampling : 4:2:0
Bit depth : 8 bits
Scan type : Progressive
Bits/(Pixel*Frame) : 0.177
Stream size : 1.61 GiB (83%)
Title : -=[wolf1245.ExKinoRay]=-
Writing library : x264 core 163 r3060 5db6aa6
Encoding settings : cabac=1 / ref=10 / deblock=1:-2:-1 / analyse=0x3:0x133 / me=umh / subme=10 / psy=1 / psy_rd=1.00:0.15 / mixed_ref=1 / me_range=32 / chroma_me=1 / trellis=2 / 8x8dct=1 / cqm=0 / deadzone=22,11 / fast_pskip=1 / chroma_qp_offset=-3 / threads=10 / lookahead_threads=2 / sliced_threads=0 / nr=0 / decimate=0 / interlaced=0 / bluray_compat=0 / constrained_intra=0 / bframes=10 / b_pyramid=2 / b_adapt=2 / b_bias=0 / direct=3 / weightb=1 / open_gop=0 / weightp=2 / keyint=240 / keyint_min=24 / scenecut=40 / intra_refresh=0 / rc_lookahead=100 / rc=2pass / mbtree=0 / bitrate=1850 / ratetol=1.0 / qcomp=0.60 / qpmin=0 / qpmax=69 / qpstep=4 / cplxblur=20.0 / qblur=0.5 / vbv_maxrate=50000 / vbv_bufsize=62500 / nal_hrd=none / filler=0 / ip_ratio=1.40 / pb_ratio=1.30 / aq=3:1.00
Language : English
Default : Yes
Forced : No
Color range : Limited
Color primaries : BT.709
Transfer characteristics : BT.709
Matrix coefficients : BT.709

Audio
ID : 2
Format : AC-3
Format/Info : Audio Coding 3
Commercial name : Dolby Digital
Codec ID : A_AC3
Duration : 2 h 4 min
Bit rate mode : Constant
Bit rate : 384 kb/s
Channel(s) : 6 channels
Channel layout : L R C LFE Ls Rs
Sampling rate : 48.0 kHz
Frame rate : 31.250 FPS (1536 SPF)
Compression mode : Lossy
Stream size : 343 MiB (17%)
Title : MVO | Jaskier | RUS
Language : Russian
Service kind : Complete Main
Default : Yes
Forced : No

Text #1
ID : 3
Format : UTF-8
Codec ID : S_TEXT/UTF8
Codec ID/Info : UTF-8 Plain Text
Duration : 1 h 59 min
Bit rate : 89 b/s
Count of elements : 2213
Stream size : 77.8 KiB (0%)
Title : Full
Language : English
Default : No
Forced : No

Text #2
ID : 4
Format : UTF-8
Codec ID : S_TEXT/UTF8
Codec ID/Info : UTF-8 Plain Text
Duration : 2 h 3 min
Bit rate : 93 b/s
Count of elements : 2410
Stream size : 84.5 KiB (0%)
Title : SDH
Language : English
Default : No
Forced : No
Релиз от:

Автор релиза:
pb.wtf



Скачать Аббатство Даунтон 2 через торрент https://i1.imageban.ru/out/2022/06/13/e5b17d9322de3a91ce6d101ef8426b48.jpg Скачать, смотреть онлайн Аббатство Даунтон 2 бесплантно в хорошем качестве Описание: Вдовствующая графиня Вайолет Кроули получает в наследство роскошную виллу на юге Франции, и вся семья отправляется в ... 10 10 3
Торрент: Зарегистрирован [2022-06-19 18:13] · скачан: 36 раз
Статус: T временная
Размер: 1.95 GB
Как cкачать? Как скачать Аббатство Даунтон 2 через торрент | UTorrent

28-11-2019 20:33  

Отключить всю рекламу на сайте

    Дорогой пользователь! Огромная просьба, поблагодарите релизера, оцените раздачу и оставьте свои комментарий, если Вы скачали Аббатство Даунтон 2 через торрент бесплатно!
    Комментировать посты могут только пользователи прошедшие не сложную регистрацию
    Показать сообщения:    

    Аббатство Даунтон 2 через торрент
    Скачать бесплатно Аббатство Даунтон 2
    Аббатство Даунтон 2 скачать торрент
    Аббатство Даунтон 2 смотреть онлайн
    Cкачать фильм Аббатство Даунтон 2 бесплатно
    Аббатство Даунтон 2 скачать торрент в хорошем качестве
    Аббатство Даунтон 2 смотреть онлайн бесплатно в хорошем качестве


    Вы можете начинать темы
    Вы можете отвечать на сообщения
    Вы не можете редактировать свои сообщения
    Вы не можете удалять свои сообщения
    Вы не можете голосовать в опросах
    Вы не можете прикреплять файлы к сообщениям
    Вы можете скачивать файлы