Всегда рабочее зеркало без VPN и Proxy просто перед .vidak.icu напиши любое слово или цифру, Пример http://i6iw.vidak.icu

MVO

MVO

1 сезон

1

1 сезон

iTunes

1 сезон

13

1 сезон

Deluxe

pack

Рекомендуем

Repack

30

ВАЖНО

RePack

MK11

RePack

jed

RePack

fifa19

RePack

RDR2

RePack

NEED FOR SPEED™ PAYBACK

Кинопоиск HD

6 сезон

 Острые козырьки 6 сезон

Все сериалы

все сериалы на PB.wtf

RePack

FAR CRY 5
  
Magnet ссылка

9 рота (Фёдор Бондарчук) [2005 г., боевик, драма, военный, история, BDRip-AVC] RUS [GER Transfer, Лицензия] от ExKinoRay pb.wtf

9 рота через торрент pb.wtf

Размер: 2.95 GB | Добавлен: 1 мес. 22 д. назад | Торрент скачан:26 раз
Смотреть онлайн 9 рота | Скачать    Ребята, помогите собрать деньги на оплату серверов!!!

20-06-2022 02:36 9 рота Скачать торрент  


9 рота
Информация о фильме:
Название: 9 рота
Год выхода: 2005
Жанр: Боевик, драма, военный, история, реальные события
Режиссер: Фёдор Бондарчук
В ролях: Алексей Чадов, Константин Крюков, Иван Кокорин, Михаил Евланов, Иван Николаев, Михаил Пореченков, Фёдор Бондарчук, Дмитрий Мухамадеев, Ирина Рахманова, Алексей Кравченко, Александр Баширов, Михаил Ефремов, Станислав Говорухин, Андрей Краско, Александр Лыков, Алексей Серебряков, Денис Мошкин, Александр Кучеренко, Светлана Иванова, Артур Смольянинов, Артём Михалков, Сослан Фидаров, Амаду Мамадаков, Александр Шейн (II), Олесь Кацион, Карен Мартиросян, Марат Гудиев, Евгений Арутюнян

Описание: СССР. Действие происходит в 1988 и 1989 годах, за несколько месяцев до полного вывода советских войск из Афганистана. Семеро призывников, после нескольких месяцев адской подготовки в «учебке» под командованием беспощадного старшины, попадают в горнило афганской кампании. Группа десантников, бойцами которой стали наши герои, получает задание командования — занять высоту и держать ее до прохождения колонны…



Страна: Россия, Финляндия, Украина
Студия: Art Pictures Group, Канал 1+1, Finnish Film Foundation, MRP Matila Rohr Productions Oy, Продюсерская компания "Слово", Канал СТС, Украинская Медийная Группа, Yleisradio
Продолжительность: 02:19:12
Перевод: Не требуется



Информация о файле:
Кодек: AVC
Формат: MKV
Качество: BDRip-AVC
Видео: MPEG-4 AVC, 1024x412, 23.976 fps, 2590 kbps
Аудио RU: AC3, 6 ch, 48 kHz, 448 kbps
Субтитры: Русские, английские



x264 info: frame I:1752 Avg QP:19.79 size: 59573
x264 info: frame P:50505 Avg QP:20.65 size: 25508
x264 info: frame B:148007 Avg QP:23.19 size: 8574
General
Unique ID : 334963579758231620523527753183555481352 (0xFBFFA38BE808F93CB748C60786B3EF08)
Complete name : D:uTorrentРипы wolf12459ROTA.2005.RUS.x264.BDRip-AVC.[wolf1245.ExKinoRay].mkv
Format : Matroska
Format version : Version 4
File size : 2.95 GiB
Duration : 2 h 19 min
Overall bit rate : 3 039 kb/s
Movie name : 9ROTA.2005.RUS.x264.BDRip-AVC.[wolf1245.ExKinoRay]
Encoded date : UTC 2022-06-20 02:19:22
Writing application : mkvmerge v68.0.0 ('The Curtain') 64-bit
Writing library : libebml v1.4.2 + libmatroska v1.6.4
Video
ID : 1
Format : AVC
Format/Info : Advanced Video Codec
Format profile : [email protected]
Format settings : CABAC / 12 Ref Frames
Format settings, CABAC : Yes
Format settings, Reference frames : 12 frames
Codec ID : V_MPEG4/ISO/AVC
Duration : 2 h 19 min
Bit rate : 2 590 kb/s
Width : 1 024 pixels
Height : 412 pixels
Display aspect ratio : 2.485
Frame rate mode : Constant
Frame rate : 23.976 (24000/1001) FPS
Color space : YUV
Chroma subsampling : 4:2:0
Bit depth : 8 bits
Scan type : Progressive
Bits/(Pixel*Frame) : 0.256
Stream size : 2.52 GiB (85%)
Title : -=[wolf1245.ExKinoRay]=-
Writing library : x264 core 163 r3060 5db6aa6
Encoding settings : cabac=1 / ref=12 / deblock=1:-3:-3 / analyse=0x3:0x133 / me=umh / subme=11 / psy=1 / psy_rd=1.00:0.15 / mixed_ref=1 / me_range=32 / chroma_me=1 / trellis=2 / 8x8dct=1 / cqm=0 / deadzone=22,11 / fast_pskip=1 / chroma_qp_offset=-3 / threads=10 / lookahead_threads=2 / sliced_threads=0 / nr=0 / decimate=0 / interlaced=0 / bluray_compat=0 / constrained_intra=0 / bframes=10 / b_pyramid=2 / b_adapt=2 / b_bias=5 / direct=3 / weightb=1 / open_gop=0 / weightp=2 / keyint=240 / keyint_min=24 / scenecut=40 / intra_refresh=0 / rc_lookahead=150 / rc=2pass / mbtree=0 / bitrate=2590 / ratetol=1.0 / qcomp=0.65 / qpmin=0 / qpmax=69 / qpstep=4 / cplxblur=20.0 / qblur=0.5 / vbv_maxrate=50000 / vbv_bufsize=62500 / nal_hrd=none / filler=0 / ip_ratio=1.40 / pb_ratio=1.30 / aq=1:1.10
Language : Russian
Default : Yes
Forced : No
Color range : Limited
Color primaries : BT.709
Transfer characteristics : BT.709
Matrix coefficients : BT.709
Audio
ID : 2
Format : AC-3
Format/Info : Audio Coding 3
Commercial name : Dolby Digital
Codec ID : A_AC3
Duration : 2 h 19 min
Bit rate mode : Constant
Bit rate : 448 kb/s
Channel(s) : 6 channels
Channel layout : L R C LFE Ls Rs
Sampling rate : 48.0 kHz
Frame rate : 31.250 FPS (1536 SPF)
Compression mode : Lossy
Stream size : 446 MiB (15%)
Title : RUS | Original
Language : Russian
Service kind : Complete Main
Default : Yes
Forced : No
Text #1
ID : 3
Format : UTF-8
Codec ID : S_TEXT/UTF8
Codec ID/Info : UTF-8 Plain Text
Duration : 2 h 14 min
Bit rate : 63 b/s
Count of elements : 1305
Stream size : 62.8 KiB (0%)
Title : Full
Language : Russian
Default : No
Forced : No
Text #2
ID : 4
Format : UTF-8
Codec ID : S_TEXT/UTF8
Codec ID/Info : UTF-8 Plain Text
Duration : 2 h 14 min
Bit rate : 37 b/s
Count of elements : 1299
Stream size : 36.7 KiB (0%)
Title : Full
Language : English
Default : No
Forced : No
Menu
00:00:00.000 : :Chapter 01
00:10:04.395 : :Chapter 02
00:26:26.835 : :Chapter 03
00:37:27.578 : :Chapter 04
00:46:48.055 : :Chapter 05
00:59:00.495 : :Chapter 06
01:11:37.751 : :Chapter 07
01:23:07.983 : :Chapter 08
01:37:39.687 : :Chapter 09
01:48:14.321 : :Chapter 10
01:55:44.604 : :Chapter 11
02:14:44.910 : :Chapter 12
02:19:12.718 : :Chapter 13
Релиз от:
Автор релиза:
pb.wtf



Скачать 9 рота через торрент http://i4.imageban.ru/out/2022/06/20/25e1bded6b1128ed768c18923d95310b.png Скачать, смотреть онлайн 9 рота бесплантно в хорошем качестве Описание: СССР. Действие происходит в 1988 и 1989 годах, за несколько месяцев до полного вывода советских войск из Афганистана. Семеро ... 4.6 10 5
Торрент: Зарегистрирован [2022-06-20 02:36] · скачан: 26 раз
Статус: √ проверено
Размер: 2.95 GB
Как cкачать? Как скачать 9 рота через торрент | UTorrent

28-11-2019 20:33  

Отключить вcю реклaмy на сайте

    Дорогой пользователь! Огромная просьба, поблагодарите релизера, оцените раздачу и оставьте свои комментарий, если Вы скачали 9 рота через торрент бесплатно!
    Комментировать посты могут только пользователи прошедшие не сложную регистрацию
    Показать сообщения:    

    9 рота через торрент
    Скачать бесплатно 9 рота
    9 рота скачать торрент
    9 рота смотреть онлайн
    Cкачать фильм 9 рота бесплатно
    9 рота скачать торрент в хорошем качестве
    9 рота смотреть онлайн бесплатно в хорошем качестве


    Вы не можете начинать темы
    Вы не можете отвечать на сообщения
    Вы не можете редактировать свои сообщения
    Вы не можете удалять свои сообщения
    Вы не можете голосовать в опросах
    Вы не можете прикреплять файлы к сообщениям
    Вы можете скачивать файлы