Всегда рабочее зеркало без VPN и Proxy просто перед .vidak.icu напиши любое слово или цифру, Пример http://0595.vidak.icu

MVO

Лицензия

1 сезон

1

1 сезон

iTunes

1 сезон

13

1 сезон

Deluxe

pack

Рекомендуем

Пиратка

30

ВАЖНО

RePack

MK11

RePack

jed

RePack

fifa19

RePack

RDR2

RePack

NEED FOR SPEED™ PAYBACK

Кинопоиск HD

6 сезон

 Острые козырьки 6 сезон

Все сериалы

все сериалы на PB.wtf

RePack

FAR CRY 5

Anonymous, нам критически не хватает 2100 руб. на оплату серверов и переферии за МАЙ, помоги нам пожалуйста, вся надежда только на тебя. В благодарность мы отключим тебе всю рекламу на сайте!

×
  
Magnet ссылка

Кванта / Quanta (Натан Далтон) [2019, Фантастика, драма, WEB-DLRip-AVC] MVO [IVI] pb.wtf

Кванта через торрент pb.wtf

Раздают: 1 [ 0 KB/s ]
Размер: 1.65 GB | Добавлен: 6 д. назад | Торрент скачан:20 раз
Смотреть онлайн Кванта | Скачать    Ребята, помогите собрать деньги на оплату серверов!!!

20-06-2022 03:03 Кванта Скачать торрент  

Кванта
Quanta
Год выпуска: 2019
Страна: Австралия
Жанр: Фантастика, драма
Продолжительность: 01:24:00
Перевод: Профессиональный многоголосый | IVI
Субтитры: Английские (full, SDH)

Режиссер: Натан Далтон

rating

В ролях: Пол Доубер, Альберт Гойхман, Дуглас Эмбри, Харлин Геркулес, Тим Кларк, Александра МакТавиш, Марк Редпаф, Стивен Дедженаро, Фил Хейден, Джульетта Салом

Описание: Труд всей жизни ученого-физика начинает, наконец, приносить свои плоды, когда по воле обстоятельств ему приходится работать в одной команде с талантливым юным помощником. Но после фиксации неизвестного сигнала из космоса коллеги-ученые оказываются по разные стороны баррикад.

Качество: WEB-DLRip-AVC
Формат: MKV

Видео: MPEG-4 AVC, 1024x510 at 24.000 fps, x264@L4.1, ~2049 kbps
Аудио#1 Ru: 48 kHz, AC3 Dolby Digital, 3/2 (L, C, R, l, r) + LFE ch, ~384 Kbps
Аудио#2 En: 48 kHz, AC3 Dolby Digital, 3/2 (L, C, R, l, r) + LFE ch, ~384 Kbps
скриншот  скриншот  скриншот  скриншот  скриншот  

x264 [info]: frame I:1246 Avg QP:15.94 size: 63735
x264 [info]: frame P:23412 Avg QP:17.54 size: 22498
x264 [info]: frame B:96296 Avg QP:19.44 size: 7107

General
Unique ID : 170712420903262908846890996353109302000 (0x806E042E2DF34C87603ACEC54D379AF0)
Complete name : I:Quanta.2019.WEB-DLRip.x264.seleZen.mkv
Format : Matroska
Format version : Version 4
File size : 1.65 GiB
Duration : 1 h 23 min
Overall bit rate : 2 818 kb/s
Movie name : Quanta.2019.WEB-DLRip.x264.seleZen
Encoded date : UTC 2022-06-19 20:34:17
Writing application : mkvmerge v63.0.0 ('Everything') 64-bit
Writing library : libebml v1.4.2 + libmatroska v1.6.4
Cover : Yes
Attachments : cover.jpg / small_cover.jpg

Video
ID : 1
Format : AVC
Format/Info : Advanced Video Codec
Format profile : High@L4.1
Format settings : CABAC / 12 Ref Frames
Format settings, CABAC : Yes
Format settings, Reference : 12 frames
Codec ID : V_MPEG4/ISO/AVC
Duration : 1 h 23 min
Bit rate : 2 049 kb/s
Width : 1 024 pixels
Height : 510 pixels
Display aspect ratio : 2.008
Frame rate mode : Constant
Frame rate : 24.000 FPS
Color space : YUV
Chroma subsampling : 4:2:0
Bit depth : 8 bits
Scan type : Progressive
Bits/(Pixel*Frame) : 0.163
Stream size : 1.20 GiB (73%)
Title : -=DoMiNo=-
Writing library : x264 core 164 r3095 baee400
Encoding settings : cabac=1 / ref=12 / deblock=1:-2:-2 / analyse=0x3:0x133 / me=umh / subme=10 / psy=1 / psy_rd=1.05:0.15 / mixed_ref=1 / me_range=32 / chroma_me=1 / trellis=2 / 8x8dct=1 / cqm=0 / deadzone=21,11 / fast_pskip=0 / chroma_qp_offset=-3 / threads=16 / lookahead_threads=3 / sliced_threads=0 / nr=0 / decimate=1 / interlaced=0 / bluray_compat=0 / constrained_intra=0 / bframes=10 / b_pyramid=2 / b_adapt=2 / b_bias=0 / direct=1 / weightb=1 / open_gop=0 / weightp=2 / keyint=250 / keyint_min=24 / scenecut=40 / intra_refresh=0 / rc_lookahead=60 / rc=crf / mbtree=0 / crf=18.5 / qcomp=0.65 / qpmin=0 / qpmax=69 / qpstep=4 / vbv_maxrate=50000 / vbv_bufsize=62500 / crf_max=0.0 / nal_hrd=none / filler=0 / ip_ratio=1.35 / pb_ratio=1.25 / aq=3:0.80
Language : English
Default : Yes
Forced : No
Color range : Limited
Color primaries : BT.709
Transfer characteristics : BT.709
Matrix coefficients : BT.709

Audio #1
ID : 2
Format : AC-3
Format/Info : Audio Coding 3
Commercial name : Dolby Digital
Codec ID : A_AC3
Duration : 1 h 23 min
Bit rate mode : Constant
Bit rate : 384 kb/s
Channel(s) : 6 channels
Channel layout : L R C LFE Ls Rs
Sampling rate : 48.0 kHz
Frame rate : 31.250 FPS (1536 SPF)
Compression mode : Lossy
Stream size : 230 MiB (14%)
Title : MVO
Language : Russian
Service kind : Complete Main
Default : Yes
Forced : Yes

Audio #2
ID : 3
Format : AC-3
Format/Info : Audio Coding 3
Commercial name : Dolby Digital
Codec ID : A_AC3
Duration : 1 h 23 min
Bit rate mode : Constant
Bit rate : 384 kb/s
Channel(s) : 6 channels
Channel layout : L R C LFE Ls Rs
Sampling rate : 48.0 kHz
Frame rate : 31.250 FPS (1536 SPF)
Compression mode : Lossy
Stream size : 231 MiB (14%)
Title : Original
Language : English
Service kind : Complete Main
Default : No
Forced : No

Text #1
ID : 4
Format : UTF-8
Codec ID : S_TEXT/UTF8
Codec ID/Info : UTF-8 Plain Text
Duration : 1 h 18 min
Bit rate : 56 b/s
Count of elements : 1081
Stream size : 32.6 KiB (0%)
Language : English
Default : No
Forced : No

Text #2
ID : 5
Format : UTF-8
Codec ID : S_TEXT/UTF8
Codec ID/Info : UTF-8 Plain Text
Duration : 1 h 20 min
Bit rate : 62 b/s
Count of elements : 1252
Stream size : 36.7 KiB (0%)
Title : SDH
Language : English
Default : No
Forced : No

pb.wtf



Скачать Кванта через торрент https://i120.fastpic.org/big/2022/0619/56/5c12c95c8b5f85d28dee54608dd89656.png Скачать, смотреть онлайн Кванта бесплантно в хорошем качестве Описание: Труд всей жизни ученого-физика начинает, наконец, приносить свои плоды, когда по воле обстоятельств ему приходится работать в ... 10 10 3
Торрент: Зарегистрирован [2022-06-20 03:03] · скачан: 20 раз
Статус: √ проверено
Размер: 1.65 GB
Как cкачать? Как скачать Кванта через торрент | UTorrent

% Раздел Тема Автор DL S | L
Фильмы (WEB-DL 720p, 1080p) [ 6.56 GB ] Кванта / Quanta [2019 WEB-DL 1080p] MVO [IVI] bober100 Скачать
4 | 1
Фильмы 2019-2020 [DVDrip, WEB-DLRip, HDrip] (DUB, MVO) [ 1.47 GB ] Кванта / Quanta [2019 WEB-DLRip] MVO [IVI] bober100 Скачать
4 | 0

28-11-2019 20:33  

Отключить всю рекламу на сайте

    Дорогой пользователь! Огромная просьба, поблагодарите релизера, оцените раздачу и оставьте свои комментарий, если Вы скачали Кванта через торрент бесплатно!
    Комментировать посты могут только пользователи прошедшие не сложную регистрацию
    Показать сообщения:    

    Кванта через торрент
    Скачать бесплатно Кванта
    Кванта скачать торрент
    Кванта смотреть онлайн
    Cкачать фильм Кванта бесплатно
    Кванта скачать торрент в хорошем качестве
    Кванта смотреть онлайн бесплатно в хорошем качестве


    Вы не можете начинать темы
    Вы не можете отвечать на сообщения
    Вы не можете редактировать свои сообщения
    Вы не можете удалять свои сообщения
    Вы не можете голосовать в опросах
    Вы не можете прикреплять файлы к сообщениям
    Вы можете скачивать файлы