Всегда рабочее зеркало без VPN и Proxy просто перед .vidak.icu напиши любое слово или цифру, Пример http://u64x.vidak.icu

MVO

MVO

1 сезон

1

1 сезон

iTunes

1 сезон

13

1 сезон

Deluxe

pack

Рекомендуем

Repack

30

ВАЖНО

RePack

MK11

RePack

jed

RePack

fifa19

RePack

RDR2

RePack

NEED FOR SPEED™ PAYBACK

Кинопоиск HD

6 сезон

 Острые козырьки 6 сезон

Все сериалы

все сериалы на PB.wtf

RePack

FAR CRY 5
  
Magnet ссылка

Детективное агентство Мухича / Сезон: 1 / Серии: 1-20 из 20 (Алексей Зотов (II) [2022, Комедия, SATRip] pb.wtf

Детективное агентство Мухича через торрент pb.wtf

Раздают: 11 [ 122 KB/s ]
Размер: 6.07 GB | Добавлен: 22 д. назад | Торрент скачан:63 раза
Смотреть онлайн Детективное агентство Мухича | Скачать    Ребята, помогите собрать деньги на оплату серверов!!!

20-06-2022 18:36 Детективное агентство Мухича Скачать торрент  

Детективное агентство Мухича
Год выпуска: 2022
Страна: Россия
Жанр: Комедия
Продолжительность: ~ 00:25:00
Субтитры: отсутствуют

Режиссер: Алексей Зотов (II)



В ролях: Роман Попов, Софья Каштанова, Рина Гришина, Сергей Штатнов, Михаил Химичев, Александр Дерепко, Маргарита Шабардыгина

Описание: После операции под прикрытием, пошедшей не по плану из-за огнемёта и сгоревшего особняка, Мухич и Кристина теряют работу в полиции и радуются, что их не посадили. Карьера разрушена, зарплата каждый месяц на карточку больше не падает, и чем заняться дальше, бывшие полицейские с Рублёвки не знают… но вдруг объявляется олигарх, готовый дать им 100 миллионов. На эти деньги Игорь Мухич решает открыть частное детективное агентство и зовёт к себе на работу Кристину. Впереди у них встречи с элитными клиентами и целая серия «сложнейших» дел, которые Мухичу предстоит раскрыть своим фирменным «гонзо-дедуктивным» методом.
Мухич и Кристина представят зрителю абсурдную интерпретацию тандема Холмс-Ватсон, в которой Шерлок Холмс отрицает законы простейшей логики, а Ватсона поначалу заботит лишь заработок.

Качество: SATRip
Формат: AVI

Видео: XviD, ~ 1650 Кбит/с, 720x304
Аудио: MP3, 2 ch, 192 Кбит/с
скриншот  скриншот  скриншот  скриншот  

Общее
Полное имя : D:\Сериалы\Detektivnoe.agentstvo.Muhicha.S01.XviD.SATRip.25Kuzmich\Detektivnoe.agentstvo.Muhicha.s01.e01.XviD.SATRip.25Kuzmich.avi
Формат : AVI
Формат/Информация : Audio Video Interleave
Размер файла : 329 Мбайт
Продолжительность : 24 м. 51 с.
Общий поток : 1 852 Кбит/сек
Программа кодирования : VirtualDubMod 1.5.10.3 | www.virtualdub-fr.org || (build 2550/release)
Библиотека кодирования : VirtualDubMod build 2550/release

Видео
Идентификатор : 0
Формат : MPEG-4 Visual
Профиль формата : Advanced [email protected]
Настройки формата : BVOP1
Параметр BVOP формата : 1
Параметр QPel формата : Нет
Параметр GMC формата : Без точки перехода
Параметр матрицы формата : Default (MPEG)
Идентификатор кодека : XVID
Идентификатор кодека/Подсказка : XviD
Продолжительность : 24 м. 51 с.
Битрейт : 1 650 Кбит/сек
Ширина : 720 пикселей
Высота : 304 пикселя
Соотношение сторон : 2,35:1
Частота кадров : 25,000 кадров/сек
Цветовое пространство : YUV
Субдискретизация насыщенности : 4:2:0
Битовая глубина : 8 бит
Тип развёртки : Прогрессивная
Метод сжатия : С потерями
Бит/(Пиксели*Кадры) : 0.302
Размер потока : 293 Мбайт (89%)
Библиотека кодирования : XviD 73

Аудио
Идентификатор : 1
Формат : MPEG Audio
Версия формата : Version 1
Профиль формата : Layer 3
Настройки формата : Joint stereo
Идентификатор кодека : 55
Идентификатор кодека/Подсказка : MP3
Продолжительность : 24 м. 51 с.
Вид битрейта : Постоянный
Битрейт : 192 Кбит/сек
Каналы : 2 канала
Частота : 48,0 КГц
Частота кадров : 41,667 кадра/сек (1152 SPF)
Метод сжатия : С потерями
Размер потока : 34,1 Мбайт (10%)
Выравнивание : Соединение по промежуткам
Продолжительность промежутка : 40 мс. (1,00 видеокадр)
Время предзагрузки промежутка : 504 мс.
Библиотека кодирования : LAME3.99r
Настройки программы : -m j -V 4 -q 2 -lowpass 18.6 -b 192

Внимание! Раздача ведётся путём добавления новых серий; при каждом добавлении создаётся новый торрент. Чтобы начать докачку новой серии, пользователям необходимо сделать следующее: (1) остановить скачивание, (2) удалить старый торрент у себя из клиента (старые серии удалять не надо), (3) скачать новый торрент и запустить его у себя в клиенте вместо старого, при этом указать клиенту путь в старую папку куда и должно происходить скачивание новых серий.

Ваш клиент при этом должен произвести хеширование (проверку) старой папки (если не производит сам - помогите ему сделать это), и будет докачивать только те серии которых у вас ещё нет. Старые серии при этом не удаляются, а продолжают раздаваться!

Eсли вы уже удалили старые серии, то предотвратить повторную закачку старых серий можно, отжав галочку в соответствующих местах при запуске нового торрента.
pb.wtf



Скачать Детективное агентство Мухича через торрент https://i120.fastpic.org/big/2022/0620/c5/7271deefc6d389378bdd4d9d1c39e9c5.jpg Скачать, смотреть онлайн Детективное агентство Мухича бесплантно в хорошем качестве Описание: После операции под прикрытием, пошедшей не по плану из-за огнемёта и сгоревшего особняка, Мухич и Кристина теряют работу в ... 7.7 10 23
Торрент: Зарегистрирован [2022-07-20 15:41] · скачан: 63 раз
Статус: √ проверено
Размер: 6.07 GB
Как cкачать? Как скачать Детективное агентство Мухича через торрент | UTorrent

% Раздел Тема Автор DL S | L
TNT serials [ 14.72 GB ] ное агентство Мухича / Сезон: 1 / Серии: 1-20 из 20 [2022 WEBRip 1080p] bober100 Скачать
9 | 0
TNT serials [ 5.65 GB ] ное агентство Мухича / Сезон: 1 / Серии: 1-20 из 20 [2022 WEBRip-AVC] bober100 Скачать
6 | 2

28-11-2019 20:33  

Отключить вcю реклaмy на сайте

    Дорогой пользователь! Огромная просьба, поблагодарите релизера, оцените раздачу и оставьте свои комментарий, если Вы скачали Детективное агентство Мухича через торрент бесплатно!
    Комментировать посты могут только пользователи прошедшие не сложную регистрацию
    Показать сообщения:    

    Детективное агентство Мухича через торрент
    Скачать бесплатно Детективное агентство Мухича
    Детективное агентство Мухича скачать торрент
    Детективное агентство Мухича смотреть онлайн
    Cкачать фильм Детективное агентство Мухича бесплатно
    Детективное агентство Мухича скачать торрент в хорошем качестве
    Детективное агентство Мухича смотреть онлайн бесплатно в хорошем качестве


    Вы не можете начинать темы
    Вы не можете отвечать на сообщения
    Вы не можете редактировать свои сообщения
    Вы не можете удалять свои сообщения
    Вы не можете голосовать в опросах
    Вы не можете прикреплять файлы к сообщениям
    Вы можете скачивать файлы