Доктор Стрэндж

Лицензия

Добыча

Дубляж

Дом дракона

1 сезон

Тор

Дубляж

В эфире

Дубляж

Там, где раки поют

MVO

Властелин колец

1 сезон

Ultimate

pack

Рекомендуем

30

Пиратка

ВАЖНО

ВАЖНО

Ghostwire

Пиратка

jed

RePack

nioh2

RePack

RDR2

RePack

NEED FOR SPEED™ PAYBACK

RePack

скачать торрент

Кинопоиск HD

Острые козырьки 6 сезон

6 сезон

FAR CRY 6

RePack

скачать торрент

Лицензия

скачать торрент

MVO

1

1 сезон

скачать торрент

1 сезон

скачать торрент

Лицензия

  

Невыносимая тяжесть огромного таланта / The Unbearable Weight of Massive Talen (Том Гормикэн) [2022, Боевик, комедия, криминал, UHD BDRemux 2160p, (Dolby Vision Profile 8)] 3xMVO [Jaskier, NewComers, TVShows]

Невыносимая тяжесть огромного таланта через торрент pb.wtf

Раздают: 2 [ 200 KB/s ] Качают: 1 [ 290 KB/s ]
Размер: 55.22 GB | Добавлен: 5 мес. 7 д. назад | Торрент скачан:97 раз
Смотреть онлайн | Скачать   

21-06-2022 03:48 Невыносимая тяжесть огромного таланта Скачать торрент  

Невыносимая тяжесть огромного таланта
The Unbearable Weight of Massive Talen

Год выпуска: 2022
Страна: США
Студия: Burr! Productions, Embassy Films, Lionsgate, Saturn Films
Жанр: Боевик, комедия, криминал
Продолжительность: 01:46:51
Перевод(ы):
#1: Профессиональный многоголосый | Jaskier
#2: Профессиональный многоголосый | NewComers
#3: Профессиональный многоголосый | TVShows
Субтитры: Русские (Forced, full), английские

Режиссер: Том Гормикэн

rating

В ролях: Николас Кейдж, Педро Паскаль, Тиффани Хэддиш, Шэрон Хорган, Пако Леон, Нил Патрик Харрис, Лили Мо Шин, Алессандра Мастронарди, Джейкоб Скипио, Катрин Ванкова и другие.

Описание: Карьера Николаса Кейджа медленно, но верно катится под откос. У него море долгов и большие проблемы в отношениях с дочерью. Однако актер не теряет надежды получить роль в новом фильме Квентина Тарантино. Ко всему прочему, к Николасу является он сам образца 1990-х и ругает его за неудачные роли в низкопробном кино и многочисленные упущенные возможности.
После того, как Кейдж соглашается появиться на дне рождения мексиканского миллиардера и своего большого фаната, к актеру обращаются из ЦРУ и сообщают, что его клиент — глава наркокартеля, похитивший дочь кандидата в президенты Мексики. Кейджу предстоит стать настоящим шпионом и сыграть величайшую роль своей жизни. «Невыносимая тяжесть огромного таланта» — комедия с Николасом Кейджем в роли Николаса Кейджа.

Качество: UHD BDRemux 2160p | Dolby Vision Profile 8
Формат: MKV

Видео: 3840x2160 at 23.976 fps, MPEG-H HEVC HDR, Dolby Vision ~ 68300 kbps avg
Аудио #01: 48 kHz, AC3, 5.1, 448 Kbps | Профессиональный многоголосый | Jaskier | RUS |
Аудио #02: 48 kHz, AC3, 5.1, 384 Kbps | Профессиональный многоголосый | NewComers | RUS |
Аудио #03: 48 kHz, AC3, 2.0, 192 Kbps | Профессиональный многоголосый | TVShows | RUS |
Аудио #04: 48 kHz, TrueHD, 7.1, 3900 Kbps | Оригинал | ENG |
Аудио #05: 48 kHz, AC3, 5.1, 640 Kbps | Оригинал | ENG |
скриншот  скриншот  скриншот  скриншот  скриншот  скриншот  

General
Unique ID : 290635641836694383248252399410347330180 (0xDAA6637823FB379C837DB98FBB854A84)
Complete name : D:Video1The.Unbearable.Weight.of.Massive.Talent.2022.BDREMUX.2160p.DVP8.HDR.seleZen.mkv
Format : Matroska
Format version : Version 4
File size : 55.2 GiB
Duration : 1 h 46 min
Overall bit rate mode : Variable
Overall bit rate : 74.0 Mb/s
Movie name : The Unbearable Weight of Massive Talent 2022 seleZen
Encoded date : UTC 2022-06-20 15:59:02
Writing application : mkvmerge v59.0.0 ('Shining Star') 64-bit
Writing library : libebml v1.4.2 + libmatroska v1.6.4

Video
ID : 1
ID in the original source m: 4117 (0x1015)
Format : HEVC
Format/Info : High Efficiency Video Coding
Format profile : Main [email protected]@High
HDR format : Dolby Vision, Version 1.0, dvhe.08.06, BL+RPU, Blu-ray compatible / SMPTE ST 2086, HDR10 compatible
Codec ID : V_MPEGH/ISO/HEVC
Duration : 1 h 46 min
Bit rate : 68.3 Mb/s
Width : 3 840 pixels
Height : 2 160 pixels
Display aspect ratio : 16:9
Frame rate mode : Constant
Frame rate : 23.976 (24000/1001) FPS
Color space : YUV
Chroma subsampling : 4:2:0 (Type 2)
Bit depth : 10 bits
Bits/(Pixel*Frame) : 0.344
Stream size : 51.0 GiB (92%)
Language : English
Default : No
Forced : No
Color range : Limited
Color primaries : BT.2020
Transfer characteristics : PQ
Matrix coefficients : BT.2020 non-constant
Mastering display color pri: BT.2020
Mastering display luminance: min: 0.0001 cd/m2, max: 1000 cd/m2
Maximum Content Light Level: 423 cd/m2
Maximum Frame-Average Light: 231 cd/m2
Original source medium : Blu-ray

Audio #1
ID : 2
Format : AC-3
Format/Info : Audio Coding 3
Commercial name : Dolby Digital
Codec ID : A_AC3
Duration : 1 h 46 min
Bit rate mode : Constant
Bit rate : 448 kb/s
Channel(s) : 6 channels
Channel layout : L R C LFE Ls Rs
Sampling rate : 48.0 kHz
Frame rate : 31.250 FPS (1536 SPF)
Compression mode : Lossy
Stream size : 342 MiB (1%)
Title : MVO [Jaskier]
Language : Russian
Service kind : Complete Main
Default : Yes
Forced : Yes

Audio #2
ID : 3
Format : AC-3
Format/Info : Audio Coding 3
Commercial name : Dolby Digital
Codec ID : A_AC3
Duration : 1 h 46 min
Bit rate mode : Constant
Bit rate : 384 kb/s
Channel(s) : 6 channels
Channel layout : L R C LFE Ls Rs
Sampling rate : 48.0 kHz
Frame rate : 31.250 FPS (1536 SPF)
Compression mode : Lossy
Stream size : 293 MiB (1%)
Title : MVO [NewComers]
Language : Russian
Service kind : Complete Main
Default : No
Forced : No

Audio #3
ID : 4
Format : AC-3
Format/Info : Audio Coding 3
Commercial name : Dolby Digital
Codec ID : A_AC3
Duration : 1 h 46 min
Bit rate mode : Constant
Bit rate : 192 kb/s
Channel(s) : 2 channels
Channel layout : L R
Sampling rate : 48.0 kHz
Frame rate : 31.250 FPS (1536 SPF)
Compression mode : Lossy
Stream size : 147 MiB (0%)
Title : MVO [TVShows]
Language : Russian
Service kind : Complete Main
Default : No
Forced : No

Audio #4
ID : 5
Format : MLP FBA 16-ch
Format/Info : Meridian Lossless Packing FBA with 16-channel presentation
Commercial name : Dolby TrueHD with Dolby Atmos
Codec ID : A_TRUEHD
Duration : 1 h 46 min
Bit rate mode : Variable
Bit rate : 3 900 kb/s
Maximum bit rate : 6 912 kb/s
Channel(s) : 8 channels
Channel layout : L R C LFE Ls Rs Lb Rb
Sampling rate : 48.0 kHz
Frame rate : 1 200.000 FPS (40 SPF)
Compression mode : Lossless
Stream size : 2.91 GiB (5%)
Title : Original
Language : English
Default : No
Forced : No
Number of dynamic objects : 11
Bed channel count : 1 channel
Bed channel configuration : LFE

Audio #5
ID : 6
Format : AC-3
Format/Info : Audio Coding 3
Commercial name : Dolby Digital
Format settings : Dolby Surround EX
Codec ID : A_AC3
Duration : 1 h 46 min
Bit rate mode : Constant
Bit rate : 640 kb/s
Channel(s) : 6 channels
Channel layout : L R C LFE Ls Rs
Sampling rate : 48.0 kHz
Frame rate : 31.250 FPS (1536 SPF)
Compression mode : Lossy
Stream size : 489 MiB (1%)
Language : English
Service kind : Complete Main
Default : No
Forced : No

Text #1
ID : 7
Format : UTF-8
Codec ID : S_TEXT/UTF8
Codec ID/Info : UTF-8 Plain Text
Duration : 1 h 36 min
Bit rate : 3 b/s
Count of elements : 67
Stream size : 2.82 KiB (0%)
Title : Forced
Language : Russian
Default : No
Forced : No

Text #2
ID : 8
Format : UTF-8
Codec ID : S_TEXT/UTF8
Codec ID/Info : UTF-8 Plain Text
Duration : 1 h 37 min
Bit rate : 134 b/s
Count of elements : 1906
Stream size : 95.8 KiB (0%)
Title : Full
Language : Russian
Default : No
Forced : No

Text #3
ID : 9
Format : UTF-8
Codec ID : S_TEXT/UTF8
Codec ID/Info : UTF-8 Plain Text
Duration : 1 h 37 min
Bit rate : 79 b/s
Count of elements : 2042
Stream size : 57.0 KiB (0%)
Title : Full
Language : English
Default : No
Forced : No

Text #4
ID : 10
Format : UTF-8
Codec ID : S_TEXT/UTF8
Codec ID/Info : UTF-8 Plain Text
Duration : 1 h 37 min
Bit rate : 82 b/s
Count of elements : 2073
Stream size : 59.1 KiB (0%)
Title : SDH
Language : English
Default : No
Forced : No

Menu
00:00:00.000 : Глава 01
00:06:52.287 : Глава 02
00:13:02.949 : Глава 03
00:18:37.199 : Глава 04
00:23:51.889 : Глава 05
00:30:58.857 : Глава 06
00:35:46.728 : Глава 07
00:44:35.006 : Глава 08
00:52:18.469 : Глава 09
00:57:09.426 : Глава 10
01:01:42.574 : Глава 11
01:07:50.817 : Глава 12
01:17:42.783 : Глава 13
01:22:12.928 : Глава 14
01:28:39.064 : Глава 15
01:35:49.953 : Глава 16




Скачать Невыносимая тяжесть огромного таланта через торрент https://i120.fastpic.org/big/2022/0621/64/b671f3e82781350ade0930bc1cd61e64.jpg Скачать, смотреть онлайн Невыносимая тяжесть огромного таланта бесплантно в хорошем качестве Описание: Карьера Николаса Кейджа медленно, но верно катится под откос. У него море долгов и большие проблемы в отношениях с дочерью. ... 10 10 2
Торрент: Зарегистрирован [2022-06-21 03:48] · скачан: 97 раз
Статус: √ проверено
Размер: 55.22 GB
Как cкачать? Как скачать Невыносимая тяжесть огромного таланта через торрент | UTorrent

% Раздел Тема Автор DL S | L
Фильмы [HD 720p, 1080p] (Хороший звук DUB, MVO) [ 11.32 GB ] Невыносимая тяжесть огромного таланта / The Unbearable Weight of Massive Talen | Jaskier | 1080p bober100 Скачать
10 | 0

28-11-2019 20:33  


Отключить вcю реклaмy на сайте, в т.ч. и в плеере онлайн просмотра!

    Дорогой пользователь! Огромная просьба, поблагодарите релизера, оцените раздачу и оставьте свои комментарий, если Вы скачали Невыносимая тяжесть огромного таланта через торрент бесплатно!!
    Комментировать посты могут только пользователи прошедшие не сложную регистрацию
    Показать сообщения:    


    Невыносимая тяжесть огромного таланта через торрент
    Скачать бесплатно Невыносимая тяжесть огромного таланта
    Невыносимая тяжесть огромного таланта скачать торрент
    Невыносимая тяжесть огромного таланта смотреть онлайн
    Cкачать фильм Невыносимая тяжесть огромного таланта бесплатно
    Невыносимая тяжесть огромного таланта скачать торрент в хорошем качестве
    Невыносимая тяжесть огромного таланта смотреть онлайн бесплатно в хорошем качестве
    Вы не можете начинать темы
    Вы не можете отвечать на сообщения
    Вы не можете редактировать свои сообщения
    Вы не можете удалять свои сообщения
    Вы не можете голосовать в опросах
    Вы не можете прикреплять файлы к сообщениям
    Вы можете скачивать файлы
    Невыносимая тяжесть огромного таланта / The Unbearable Weight of Massive Talen [2022, Боевик, комедия, криминал, UHD BDRemux 2160p, ] 3xMVO [Jaskier, NewComers, TVShows] смотреть онлайн, скачать торрент picoco.icu