Всегда рабочее зеркало без VPN и Proxy просто перед .vidak.icu напиши любое слово или цифру, Пример http://eggz.vidak.icu

Лицензия

MVO

1 сезон

1

1 сезон

iTunes

1 сезон

13

1 сезон

Deluxe

pack

Рекомендуем

Repack

30

ВАЖНО

RePack

MK11

RePack

jed

RePack

fifa19

RePack

RDR2

RePack

NEED FOR SPEED™ PAYBACK

Кинопоиск HD

6 сезон

 Острые козырьки 6 сезон

Все сериалы

все сериалы на PB.wtf

RePack

FAR CRY 5
  
Magnet ссылка

Гнев Божий / La Ira de Dios / The Wrath of God (Себастьян Шиндел) [2022, Триллер, драма, WEB-DL 1080p] MVO [Jaskier] pb.wtf

Гнев Божий через торрент pb.wtf

Раздают: 3 [ 0 KB/s ]
Размер: 4.67 GB | Добавлен: 1 мес. 22 д. назад | Торрент скачан:33 раза
Смотреть онлайн Гнев Божий | Скачать    Ребята, помогите собрать деньги на оплату серверов!!!

21-06-2022 04:00 Гнев Божий Скачать торрент  

Гнев Божий
La Ira de Dios
The Wrath of God

Год выпуска: 2022
Страна: Аргентина
Студия: Buffalo Films
Жанр: Триллер, драма
Продолжительность: 01:38:27
Перевод: Профессиональный (многоголосый) | Jaskier
Субтитры: Русские (форсированные, полные (NF)), английские, украинские, испанские

Режиссер: Себастьян Шиндел

rating

В ролях: Макарена Ачага, Хуан Минухин, Диего Перетти

Описание: Лусиана, молодая женщина, погруженная в круговорот загадочных смертей родственников и растущее подозрение, что виновником является загадочный писатель, ее бывший босс.

Качество: WEB-DL 1080p
Формат: MKV

Видео: MPEG-4 AVC, 1920x1080 at 23.976 fps, [email protected], ~5123 kbps
Аудио 1: AC3, 6 ch, ~384 kbps - | Русский |
Аудио 2: E-AC3, 6 ch, ~640 kbps - | Английский |
Аудио 3: E-AC3, 6 ch, ~640 kbps - | Испанский |
скриншот  скриншот  скриншот  скриншот  

General
Unique ID : 48579955619046059765943481372390451834 (0x248C28BC3E696B2129161837603BEA7A)
Complete name : D:123The.Wrath.of.God.2022.WEB-DL.1080p.x264.seleZen.mkv
Format : Matroska
Format version : Version 4
File size : 4.67 GiB
Duration : 1 h 38 min
Overall bit rate mode : Variable
Overall bit rate : 6 789 kb/s
Movie name : The.Wrath.of.God.2022.WEB-DL.1080p.x264.seleZen
Encoded date : UTC 2022-06-20 10:37:14
Writing application : mkvmerge v63.0.0 ('Everything') 64-bit
Writing library : libebml v1.4.2 + libmatroska v1.6.4
Cover : Yes
Attachments : cover.jpg / small_cover.jpg

Video
ID : 1
Format : AVC
Format/Info : Advanced Video Codec
Format profile : [email protected]
Format settings : CABAC / 4 Ref Frames
Format settings, CABAC : Yes
Format settings, Reference : 4 frames
Codec ID : V_MPEG4/ISO/AVC
Duration : 1 h 38 min
Bit rate mode : Variable
Bit rate : 5 123 kb/s
Maximum bit rate : 20.0 Mb/s
Width : 1 920 pixels
Height : 1 080 pixels
Display aspect ratio : 16:9
Frame rate mode : Constant
Frame rate : 23.976 (24000/1001) FPS
Color space : YUV
Chroma subsampling : 4:2:0
Bit depth : 8 bits
Scan type : Progressive
Bits/(Pixel*Frame) : 0.103
Stream size : 3.52 GiB (75%)
Writing library : x264 core 148 r2727 7d026e8
Encoding settings : cabac=1 / ref=4 / deblock=1:0:0 / analyse=0x3:0x111 / me=umh / subme=10 / psy=1 / psy_rd=1.00:0.00 / mixed_ref=1 / me_range=120 / chroma_me=1 / trellis=2 / 8x8dct=1 / cqm=0 / deadzone=21,11 / fast_pskip=1 / chroma_qp_offset=-2 / threads=6 / lookahead_threads=1 / sliced_threads=0 / nr=0 / decimate=1 / interlaced=0 / bluray_compat=0 / stitchable=1 / constrained_intra=0 / bframes=16 / b_pyramid=2 / b_adapt=2 / b_bias=0 / direct=3 / weightb=1 / open_gop=0 / weightp=2 / keyint=240 / keyint_min=121 / scenecut=0 / intra_refresh=0 / rc_lookahead=240 / rc=crf / mbtree=1 / crf=16.0 / qcomp=0.50 / qpmin=6 / qpmax=51 / qpstep=4 / vbv_maxrate=20000 / vbv_bufsize=25000 / crf_max=0.0 / nal_hrd=vbr / filler=0 / ip_ratio=1.40 / aq=1:0.80
Language : Spanish
Default : Yes
Forced : No

Audio #1
ID : 2
Format : AC-3
Format/Info : Audio Coding 3
Commercial name : Dolby Digital
Codec ID : A_AC3
Duration : 1 h 38 min
Bit rate mode : Constant
Bit rate : 384 kb/s
Channel(s) : 6 channels
Channel layout : L R C LFE Ls Rs
Sampling rate : 48.0 kHz
Frame rate : 31.250 FPS (1536 SPF)
Compression mode : Lossy
Stream size : 270 MiB (6%)
Title : MVO_[Jaskier]
Language : Russian
Service kind : Complete Main
Default : Yes
Forced : No

Audio #2
ID : 3
Format : E-AC-3
Format/Info : Enhanced AC-3
Commercial name : Dolby Digital Plus
Codec ID : A_EAC3
Duration : 1 h 38 min
Bit rate mode : Constant
Bit rate : 640 kb/s
Channel(s) : 6 channels
Channel layout : L R C LFE Ls Rs
Sampling rate : 48.0 kHz
Frame rate : 31.250 FPS (1536 SPF)
Compression mode : Lossy
Stream size : 451 MiB (9%)
Language : English
Service kind : Complete Main
Default : No
Forced : No

Audio #3
ID : 4
Format : E-AC-3
Format/Info : Enhanced AC-3
Commercial name : Dolby Digital Plus
Codec ID : A_EAC3
Duration : 1 h 38 min
Bit rate mode : Constant
Bit rate : 640 kb/s
Channel(s) : 6 channels
Channel layout : L R C LFE Ls Rs
Sampling rate : 48.0 kHz
Frame rate : 31.250 FPS (1536 SPF)
Compression mode : Lossy
Stream size : 451 MiB (9%)
Title : Latin American
Language : Spanish
Service kind : Complete Main
Default : No
Forced : No

Text #1
ID : 5
Format : UTF-8
Codec ID : S_TEXT/UTF8
Codec ID/Info : UTF-8 Plain Text
Duration : 1 h 20 min
Bit rate : 1 b/s
Count of elements : 21
Stream size : 911 Bytes (0%)
Title : Forced
Language : Russian
Default : Yes
Forced : No

Text #2
ID : 6
Format : UTF-8
Codec ID : S_TEXT/UTF8
Codec ID/Info : UTF-8 Plain Text
Duration : 1 h 36 min
Bit rate : 82 b/s
Count of elements : 1245
Stream size : 58.5 KiB (0%)
Language : Russian
Default : No
Forced : No

Text #3
ID : 7
Format : UTF-8
Codec ID : S_TEXT/UTF8
Codec ID/Info : UTF-8 Plain Text
Duration : 1 h 34 min
Bit rate : 0 b/s
Count of elements : 20
Stream size : 512 Bytes (0%)
Title : Forced
Language : English
Default : No
Forced : No

Text #4
ID : 8
Format : UTF-8
Codec ID : S_TEXT/UTF8
Codec ID/Info : UTF-8 Plain Text
Duration : 1 h 36 min
Bit rate : 52 b/s
Count of elements : 1265
Stream size : 36.9 KiB (0%)
Language : English
Default : No
Forced : No

Text #5
ID : 9
Format : UTF-8
Codec ID : S_TEXT/UTF8
Codec ID/Info : UTF-8 Plain Text
Duration : 1 h 36 min
Bit rate : 51 b/s
Count of elements : 1234
Stream size : 36.6 KiB (0%)
Language : English
Default : No
Forced : No

Text #6
ID : 10
Format : UTF-8
Codec ID : S_TEXT/UTF8
Codec ID/Info : UTF-8 Plain Text
Duration : 1 h 36 min
Bit rate : 72 b/s
Count of elements : 1519
Stream size : 50.8 KiB (0%)
Title : SDH
Language : English
Default : No
Forced : No

Text #7
ID : 11
Format : UTF-8
Codec ID : S_TEXT/UTF8
Codec ID/Info : UTF-8 Plain Text
Duration : 1 h 36 min
Bit rate : 85 b/s
Count of elements : 1232
Stream size : 60.5 KiB (0%)
Language : Ukrainian
Default : No
Forced : No

Text #8
ID : 12
Format : UTF-8
Codec ID : S_TEXT/UTF8
Codec ID/Info : UTF-8 Plain Text
Duration : 1 h 32 min
Bit rate : 62 b/s
Count of elements : 1319
Stream size : 42.1 KiB (0%)
Title : Latin American (SDH)
Language : Spanish
Default : No
Forced : No

Menu
01:32:38.000 : en:Credits

pb.wtf



Скачать Гнев Божий через торрент https://i120.fastpic.org/big/2022/0620/50/f975050a9ffd4df23237403fe4176050.jpg Скачать, смотреть онлайн Гнев Божий бесплантно в хорошем качестве Описание: Лусиана, молодая женщина, погруженная в круговорот загадочных смертей родственников и растущее подозрение, что виновником ... 10 10 4
Торрент: Зарегистрирован [2022-06-21 04:00] · скачан: 33 раз
Статус: √ проверено
Размер: 4.67 GB
Как cкачать? Как скачать Гнев Божий через торрент | UTorrent

% Раздел Тема Автор DL S | L
Фильмы 2022 [DVDrip, WEB-DLRip, HDrip] (DUB, MVO) [ 1.46 GB ] Гнев Божий / La Ira de Dios / The Wrath of God [2022 WEB-DLRip] MVO [Jaskier] bober100 Скачать
1 | 0

28-11-2019 20:33  

Отключить вcю реклaмy на сайте

22-06-2022 07:49 Гнев Божий Скачать торрент  

ММММ хуита!pb.wtf



    Дорогой пользователь! Огромная просьба, поблагодарите релизера, оцените раздачу и оставьте свои комментарий, если Вы скачали Гнев Божий через торрент бесплатно!
    Комментировать посты могут только пользователи прошедшие не сложную регистрацию
    Показать сообщения:    

    Гнев Божий через торрент
    Скачать бесплатно Гнев Божий
    Гнев Божий скачать торрент
    Гнев Божий смотреть онлайн
    Cкачать фильм Гнев Божий бесплатно
    Гнев Божий скачать торрент в хорошем качестве
    Гнев Божий смотреть онлайн бесплатно в хорошем качестве


    Вы не можете начинать темы
    Вы не можете отвечать на сообщения
    Вы не можете редактировать свои сообщения
    Вы не можете удалять свои сообщения
    Вы не можете голосовать в опросах
    Вы не можете прикреплять файлы к сообщениям
    Вы можете скачивать файлы