Всегда рабочее зеркало без VPN и Proxy просто перед .vidak.icu напиши любое слово или цифру, Пример http://4d2s.vidak.icu

MVO

Лицензия

1 сезон

1

1 сезон

iTunes

1 сезон

13

1 сезон

Deluxe

pack

Рекомендуем

Пиратка

30

ВАЖНО

RePack

MK11

RePack

jed

RePack

fifa19

RePack

RDR2

RePack

NEED FOR SPEED™ PAYBACK

Кинопоиск HD

6 сезон

 Острые козырьки 6 сезон

Все сериалы

все сериалы на PB.wtf

RePack

FAR CRY 5

Anonymous, нам критически не хватает 2100 руб. на оплату серверов и переферии за МАЙ, помоги нам пожалуйста, вся надежда только на тебя. В благодарность мы отключим тебе всю рекламу на сайте!

×
  
Magnet ссылка

Я — Златан / Jag är Zlatan / I Am Zlatan (Йенс Сьёгрен) [2021, Драма, биография, спорт, BDRip 1080p] DUB [Pride Production] pb.wtf

Я — Златан через торрент pb.wtf

Раздают: 13 [ 728 KB/s ] Качают: 1 [ 0 KB/s ]
Размер: 7.24 GB | Добавлен: 5 д. назад | Торрент скачан:151 раз
Смотреть онлайн Я — Златан | Скачать    Ребята, помогите собрать деньги на оплату серверов!!!

21-06-2022 04:29 Я — Златан Скачать торрент  

Я — Златан
Jag är Zlatan
I Am Zlatan

Год выпуска: 2021
Страна: Швеция, Дания, Нидерланды
Студия: B-Reel Films, Keplerfilm, Stiftelsen Svenska Filminstitutet, Stockholm
Жанр: Драма, биография, спорт
Продолжительность: 01:43:05
Перевод: Дублированный | Pride Production
Субтитры: отсутствуют

Режиссер: Йенс Сьёгрен

rating

В ролях: Хокан Бенгтссон, Дэвид С. Линдгрен, Эммануэль Аита, Гранит Рушити, Дидрик Гиллстедт, Линда Хазири, Седомир Глишович, Доминик Андерссон Байрактати, Мерима Диздаревич, Сельма Месанович

Описание: Он вырос в одном из самых криминальных районов и с самых низов попал на вершину мирового футбола. Благодаря упорству, удаче и прирожденному таланту ему удалось завладеть сердцами миллионов. Его имя скандирует толпа, и при виде него ликуют стадионы. Имя легенды — Златан Ибрагимович, и это его история.

Качество: BDRip 1080p
Формат: MKV

Видео: MPEG-4 AVC, 1920x800, 9031 Kbit/s, 24.000 fps
Аудио #01: 48 kHz, AC3, 5.1, 384 Kbps | Дублированный | Pride Production | RUS |
Аудио #02: 48 kHz, AC3, 5.1, 640 Kbps | Оригинал | SWE |
скриншот  скриншот  скриншот  скриншот  скриншот  скриншот  

General
Unique ID: 55014246758706773976081721249351808861 (0x29635BC7F8527C918BB03A34EE97375D)
Complete name: D:Video1Jag.aer.Zlatan.2021.BDRip.1080p.seleZen.mkv
Format: Matroska
Format version: Version 4
File size: 7.24 GiB
Duration: 1 h 43 min
Overall bit rate: 10.1 Mb/s
Movie name: Jag aer Zlatan 2021 from seleZen
Encoded date: UTC 2022-06-20 10:05:36
Writing application: mkvmerge v59.0.0 ('Shining Star') 64-bit
Writing library: libebml v1.4.2 + libmatroska v1.6.4

Video
ID: 1
Format: AVC
Format/Info: Advanced Video Codec
Format profile: High@L4.1
Format settings: CABAC / 5 Ref Frames
Format settings, CABAC: Yes
Format settings, Reference: 5 frames
Codec ID: V_MPEG4/ISO/AVC
Duration: 1 h 43 min
Bit rate: 9 031 kb/s
Width: 1 920 pixels
Height: 800 pixels
Display aspect ratio: 2.40:1
Frame rate mode: Constant
Frame rate: 24.000 FPS
Color space: YUV
Chroma subsampling: 4:2:0
Bit depth: 8 bits
Scan type: Progressive
Bits/(Pixel*Frame): 0.245
Stream size: 6.50 GiB (90%)
Writing library: x264 core 146 -from seleZen
Encoding settings: cabac=1 / ref=5 / deblock=1:-2:-2 / analyse=0x3:0x133 / me=umh / subme=10 / psy=1 / psy_rd=1.02:0.02 / mixed_ref=1 / me_range=48 / chroma_me=1 / trellis=2 / 8x8dct=1 / cqm=0 / deadzone=21, 11 / fast_pskip=0 / chroma_qp_offset=-3 / threads=72 / lookahead_threads=6 / sliced_threads=0 / nr=0 / decimate=0 / interlaced=0 / bluray_compat=0 / constrained_intra=0 / bframes=9 / b_pyramid=2 / b_adapt=2 / b_bias=0 / direct=3 / weightb=1 / open_gop=0 / weightp=2 / keyint=240 / keyint_min=23 / scenecut=40 / intra_refresh=0 / rc_lookahead=50 / rc=2pass / mbtree=0 / bitrate=9031 / ratetol=1.0 / qcomp=0.60 / qpmin=0 / qpmax=51 / qpstep=4 / cplxblur=20.0 / qblur=0.5 / vbv_maxrate=50000 / vbv_bufsize=62500 / nal_hrd=none / filler=0 / ip_ratio=1.40 / pb_ratio=1.30 / aq=3:0.80
Language: English
Default: Yes
Forced: No

Audio #1
ID: 2
Format: AC-3
Format/Info: Audio Coding 3
Commercial name: Dolby Digital
Codec ID: A_AC3
Duration: 1 h 43 min
Bit rate mode: Constant
Bit rate: 384 kb/s
Channel(s): 6 channels
Channel layout: L R C LFE Ls Rs
Sampling rate: 48.0 kHz
Frame rate: 31.250 FPS (1536 SPF)
Compression mode: Lossy
Stream size: 283 MiB (4%)
Title: Dub
Language: Russian
Service kind: Complete Main
Default: Yes
Forced: Yes

Audio #2
ID: 3
Format: AC-3
Format/Info: Audio Coding 3
Commercial name: Dolby Digital
Codec ID: A_AC3
Duration: 1 h 43 min
Bit rate mode: Constant
Bit rate: 640 kb/s
Channel(s): 6 channels
Channel layout: L R C LFE Ls Rs
Sampling rate: 48.0 kHz
Frame rate: 31.250 FPS (1536 SPF)
Compression mode: Lossy
Stream size: 472 MiB (6%)
Title: Original
Language: Italian
Service kind: Complete Main
Default: No
Forced: No

Menu
00:00:00.000: Chapter 01
00:07:07.666: Chapter 02
00:16:36.458: Chapter 03
00:24:04.416: Chapter 04
00:33:29.041: Chapter 05
00:42:17.291: Chapter 06
00:49:45.125: Chapter 07
00:59:49.000: Chapter 08
01:08:10.333: Chapter 09
01:16:32.625: Chapter 10
01:24:08.708: Chapter 11
01:34:45.541: Chapter 12

pb.wtf



Скачать Я — Златан через торрент https://i120.fastpic.org/big/2022/0621/18/ee542b79ec856f8846571fee13972718.jpg Скачать, смотреть онлайн Я — Златан бесплантно в хорошем качестве Описание: Он вырос в одном из самых криминальных районов и с самых низов попал на вершину мирового футбола. Благодаря упорству, удаче и ... 10 10 7
Торрент: Зарегистрирован [2022-06-21 04:29] · скачан: 151 раз
Статус: √ проверено
Размер: 7.24 GB
Как cкачать? Как скачать Я — Златан через торрент | UTorrent

28-11-2019 20:33  

Отключить всю рекламу на сайте

    Дорогой пользователь! Огромная просьба, поблагодарите релизера, оцените раздачу и оставьте свои комментарий, если Вы скачали Я — Златан через торрент бесплатно!
    Комментировать посты могут только пользователи прошедшие не сложную регистрацию
    Показать сообщения:    

    Я — Златан через торрент
    Скачать бесплатно Я — Златан
    Я — Златан скачать торрент
    Я — Златан смотреть онлайн
    Cкачать фильм Я — Златан бесплатно
    Я — Златан скачать торрент в хорошем качестве
    Я — Златан смотреть онлайн бесплатно в хорошем качестве


    Вы не можете начинать темы
    Вы не можете отвечать на сообщения
    Вы не можете редактировать свои сообщения
    Вы не можете удалять свои сообщения
    Вы не можете голосовать в опросах
    Вы не можете прикреплять файлы к сообщениям
    Вы можете скачивать файлы