Всегда рабочее зеркало без VPN и Proxy просто перед .vidak.icu напиши любое слово или цифру, Пример http://r7g0.vidak.icu

Лицензия

MVO

1 сезон

1

1 сезон

iTunes

1 сезон

13

1 сезон

Deluxe

pack

Рекомендуем

Repack

30

ВАЖНО

RePack

MK11

RePack

jed

RePack

fifa19

RePack

RDR2

RePack

NEED FOR SPEED™ PAYBACK

Кинопоиск HD

6 сезон

 Острые козырьки 6 сезон

Все сериалы

все сериалы на PB.wtf

RePack

FAR CRY 5
  
Magnet ссылка

Старик / The Old Man / Сезон: 1 / Серии: 1-7 из 7 (Джон Уоттс, Джет Уилкинсон, Зетна Фуэнтес) [2022, Боевик, триллер, драма, WEBRip] MVO [HDRezka Studio] pb.wtf

Старик через торрент pb.wtf

Раздают: 3 [ 0.6 KB/s ] Качают: 5 [ 0 KB/s ]
Размер: 4.55 GB | Добавлен: 22 д. назад | Торрент скачан:82 раза
Смотреть онлайн Старик | Скачать    Ребята, помогите собрать деньги на оплату серверов!!!

21-06-2022 06:33 Старик Скачать торрент  

Старик
The Old Man

Год выпуска: 2022
Страна: США
Выпущено: 20th Television, Fox 21 Television Studios, Fresh Bacon Media, Littlefield Company, The Littlefield Co.
Жанр: Боевик, триллер, драма
Продолжительность: ~ 01:00:00 серия
Перевод: Профессиональный (многоголосый) | HDRezka Studio
Субтитры: Русские (форсированные hardsub)

Режиссер: Джон Уоттс, Джет Уилкинсон, Зетна Фуэнтес

rating

В ролях: Джефф Бриджес, Педж Вахдат, Джон Литгоу, Э.Дж. Бонилья, Алиа Шокат, Гбенга Акиннагбе, Билл Хек, Фаран Таир, Этан Рэйнс

Описание: «Старик» — это экранизация одноименного бестселлера Томаса Перри, вышедшего в 2017 году. Главный герой — Дэн Чейз (Джефф Бриджес) — вдовец из Вермонта, который живет с двумя ротвейлерами в тихом уединении и время от времени общается по телефону со своей дочерью. Когда в его доме появляется ватага киллеров, становится очевидно, что Дэн — больше, чем обычный пенсионер с регулярными визитами к врачу и нерегулярным сном. Оказывается, в 1980-х он был оперативником ЦРУ в Афганистане, и теперь, спустя десятилетия похороненная тогда тайна всплыла наружу, и пожилого мужчину ждут суровые последствия, независимо от того, заслужил он их или нет. Человек на хвосте у главного героя — Гарольд Харпер (Джон Литгоу), слабый союзник Дэна в прошлом, а ныне — шишка ФБР на последних этапах своей блестящей карьеры. Он борется с собственным горем, взращивает сильного протеже и не очень-то уверен, что на самом деле хочет поймать Чейза. Впрочем, оба скоро поймут, что в этой игре принимают участие гораздо более мощные и влиятельные силы.

Качество: WEBRip
Формат: AVI

Видео: XviD, 704x352 (2.00:1), 23,976 fps, ~1500 kbps
Аудио: AC-3, 48 kHz, 2 ch, 192 kbps

Полное имя : The.Old.Man.S01.WEBRip.Rus.HDRezka\The.Old.Man.S01E01.WEBRip.Rus.HDRezka.JuSSiKa.avi
Формат : AVI
Формат/Информация : Audio Video Interleave
Размер файла : 750 Мбайт
Продолжительность : 1 ч. 1 м.
Общий поток : 1710 Кбит/сек
Программа кодирования : VirtualDubMod 1.5.10.3 (build 2550/release)
Библиотека кодирования : VirtualDubMod build 2550/release

Видео
Идентификатор : 0
Формат : MPEG-4 Visual
Профиль формата : Advanced [email protected]
Настройки формата : BVOP1
Параметр BVOP формата : 1
Параметр QPel формата : Нет
Параметр GMC формата : Без точки перехода
Параметр матрицы формата : Default (H.263)
Идентификатор кодека : XVID
Идентификатор кодека/Подсказка : XviD
Продолжительность : 1 ч. 1 м.
Битрейт : 1509 Кбит/сек
Ширина : 704 пикселя
Высота : 352 пикселя
Соотношение сторон : 2,000
Частота кадров : 23,976 (24000/1001) кадра/сек
Цветовое пространство : YUV
Субдискретизация насыщенности : 4:2:0
Битовая глубина : 8 бит
Тип развёртки : Прогрессивная
Метод сжатия : С потерями
Бит/(Пиксели*Кадры) : 0.254
Размер потока : 662 Мбайт (88%)
Библиотека кодирования : XviD 1.2.1 (UTC 2008-12-04)

Аудио
Идентификатор : 1
Формат : AC-3
Формат/Информация : Audio Coding 3
Параметр Endianness формата : Big
Идентификатор кодека : 2000
Продолжительность : 1 ч. 1 м.
Вид битрейта : Постоянный
Битрейт : 192 Кбит/сек
Каналы : 2 канала
Расположение каналов : Front: L R
Частота : 48,0 КГц
Частота кадров : 31,250 кадров/сек (1536 SPF)
Битовая глубина : 16 бит
Метод сжатия : С потерями
Размер потока : 84,2 Мбайт (11%)
Выравнивание : Разделение по промежуткам
Продолжительность промежутка : 42 мс. (1,00 видеокадр)
Время предзагрузки промежутка : 500 мс.
ServiceKind/String : Complete Main

Когда раздача ведётся путём добавления новых серий, при каждом добавлении создётся новый торрент. Чтобы начать докачку новой серии, пользователям необходимо сделать следующее:
(1) остановить скачивание,
(2) удалить старый торрент у себя из клиента (старые серии удалять не надо),
(3) скачать новый торрент и запустить его у себя в клиенте вместо старого, при этом указать клиенту путь в старую папку, куда и должно происходить скачивание новых серий.
Ваш клиент при этом должен произвести хеширование (проверку) старой папки (если не производит сам - помогите ему сделать это), и будет докачивать только те серии, которых у вас ещё нет. Старые серии при этом не удаляются, а продолжают раздаваться!
Eсли вы уже удалили старые серии, то предотвратить повторную закачку старых серий можно, отжав галочку в соответсвующих местах при запуске нового торрента. По возможности, желательно не удалять старые серии как можно дольше, чтобы релизёр не столько продолжал раздавать старые серии, а смог сконцентрироваться на новых.

pb.wtf



Скачать Старик через торрент https://i120.fastpic.org/big/2022/0618/cd/1ec1a01a4b00548e01507040d26b37cd.jpeg Скачать, смотреть онлайн Старик бесплантно в хорошем качестве Описание: «Старик» — это экранизация одноименного бестселлера Томаса Перри, вышедшего в 2017 году. Главный герой — Дэн Чейз (Джефф Бриджес) ... 8 10 9
Торрент: Зарегистрирован [2022-07-23 16:42] · скачан: 82 раз
Статус: √ проверено
Размер: 4.55 GB
Как cкачать? Как скачать Старик через торрент | UTorrent

% Раздел Тема Автор DL S | L
Зарубежные сериалы [ 5.75 GB ] Старик / The Old Man / Сезон: 1 / Серии: 1-7 из 7 [2022 WEB-DLRip] MVO [LostFilm] bober100 Скачать
1 | 0
Зарубежные сериалы [ 17.93 GB ] Старик / The Old Man / Сезон: 1 / Серии: 1-7 из 7 [2022 WEB-DL 1080p] 3xMVO [LostFilm HDRezka Studio NewStudio] GEKADOL Скачать
3 | 0
Зарубежные сериалы [ 4.66 GB ] Старик / The Old Man / Сезон: 1 / Серии: 1-7 из 7 [2022 WEB-DLRip-AVC] MVO [LostFilm] bober100 Скачать
3 | 0
Зарубежные сериалы [ 16.7 GB ] Старик / The Old Man / Сезон: 1 / Серии: 1-7 из 7 [2022 WEB-DL 1080p] MVO [NewStudio] bober100 Скачать
3 | 0
Зарубежные сериалы [ 10.56 GB ] Старик / The Old Man / Сезон: 1 / Серии: 1-7 из 7 [2022 WEB-DL 720p] 2xMVO [NewStudio HDRezka Studio] bober100 Скачать
3 | 0
Зарубежные сериалы [ 18.1 GB ] Старик / The Old Man / Сезон: 1 / Серии: 1-7 из 7 [2022 WEB-DL 1080p] [MVO] + [AVO] + [Ukr MVO] killermax2013 Скачать
3 | 2

28-11-2019 20:33  

Отключить вcю реклaмy на сайте

    Дорогой пользователь! Огромная просьба, поблагодарите релизера, оцените раздачу и оставьте свои комментарий, если Вы скачали Старик через торрент бесплатно!
    Комментировать посты могут только пользователи прошедшие не сложную регистрацию
    Показать сообщения:    

    Старик через торрент
    Скачать бесплатно Старик
    Старик скачать торрент
    Старик смотреть онлайн
    Cкачать фильм Старик бесплатно
    Старик скачать торрент в хорошем качестве
    Старик смотреть онлайн бесплатно в хорошем качестве


    Вы не можете начинать темы
    Вы не можете отвечать на сообщения
    Вы не можете редактировать свои сообщения
    Вы не можете удалять свои сообщения
    Вы не можете голосовать в опросах
    Вы не можете прикреплять файлы к сообщениям
    Вы можете скачивать файлы