Доктор Стрэндж

Лицензия

Добыча

Дубляж

Дом дракона

1 сезон

Тор

Дубляж

В эфире

Дубляж

Там, где раки поют

MVO

Властелин колец

1 сезон

Ultimate

pack

Рекомендуем

30

Пиратка

ВАЖНО

ВАЖНО

Ghostwire

Пиратка

jed

RePack

nioh2

RePack

RDR2

RePack

NEED FOR SPEED™ PAYBACK

RePack

скачать торрент

Кинопоиск HD

Острые козырьки 6 сезон

6 сезон

FAR CRY 6

RePack

скачать торрент

Лицензия

скачать торрент

MVO

1

1 сезон

скачать торрент

1 сезон

скачать торрент

Лицензия

  

Флешбэк / Memory (Мартин Кэмпбелл) [2022, Боевик, триллер, UHD WEB-DL-HEVC 2160p] Дубляж [Велес] +MVO [TVShows]

Флешбэк через торрент pb.wtf

Раздают: 3 [ 0 KB/s ]
Размер: 12.59 GB | Добавлен: 5 мес. 6 д. назад | Торрент скачан:178 раз
Смотреть онлайн | Скачать   

22-06-2022 03:10 Флешбэк Скачать торрент  

Флешбэк
Memory

Год выпуска: 2022
Страна: США
Выпущено: Arthur Sarkissian Productions, Black Bear Pictures, Saville Productions, Welle Entertainment
Жанр: Боевик, триллер
Продолжительность: 01:54:04
Перевод(ы):
#1: Дублированный | Велес
#2: Профессиональный многоголосый | TVShows
Субтитры: Английские

Режиссер: Мартин Кэмпбелл

rating

В ролях: Лиам Нисон, Гай Пирс, Тадж Атвал, Арольд Торрес, Рэй Фиарон, Моника Беллуччи, Миа Санчес, Даниэль Де Бург, Натали Андерсон, Ребекка Калдер, Скот Уильямс, Дуглас Рао, Атанас Сребрев, Ли Бордман, Стелла Стокер

Описание: Не выполнив заказ серьезной криминальной организации, киллер с болезнью Альцгеймера понимает, что теперь охота открыта на него самого. «Флешбэк» — ремейк бельгийского триллера 2003 года «Синдром Альцгеймера».

Качество: UHD WEB-DL-HEVC 2160p
Формат: MKV

Видео: 3840x1600 at 23.976 fps, MPEG-H HEVC HDR, ~ 14600 kbps avg
Аудио #01: 48 kHz, AC3, 5.1, 384 Kbps | Дублированный | Велес | RUS |
Аудио #02: 48 kHz, AC3, 2.0, 192 Kbps | Профессиональный многоголосый | TVShows | RUS |
Аудио #03: 48 kHz, E-AC3, 5.1, 640 Kbps | Оригинал | ENG |
скриншот  скриншот  скриншот  скриншот  скриншот  

General
Unique ID : 195229276139185017910153528188079939713 (0x92DFCA78034740C11598404DF89BA081)
Complete name : D:Video1Memory.2022.WEB-DL.2160p.HDR.seleZen.mkv
Format : Matroska
Format version : Version 4
File size : 12.6 GiB
Duration : 1 h 54 min
Overall bit rate : 15.8 Mb/s
Movie name : Memory 2022 from seleZen
Encoded date : UTC 2022-06-22 00:39:34
Writing application : mkvmerge v59.0.0 ('Shining Star') 64-bit
Writing library : libebml v1.4.2 + libmatroska v1.6.4

Video
ID : 1
Format : HEVC
Format/Info : High Efficiency Video Coding
Format profile : Main [email protected]@Main
HDR format : SMPTE ST 2094 App 4, Version 1, HDR10+ Profile B compatible
Codec ID : V_MPEGH/ISO/HEVC
Duration : 1 h 54 min
Bit rate : 14.6 Mb/s
Width : 3 840 pixels
Height : 1 600 pixels
Display aspect ratio : 2.40:1
Frame rate mode : Constant
Frame rate : 23.976 (24000/1001) FPS
Color space : YUV
Chroma subsampling : 4:2:0
Bit depth : 10 bits
Bits/(Pixel*Frame) : 0.099
Stream size : 11.6 GiB (92%)
Language : English
Default : Yes
Forced : No
Color range : Limited
Color primaries : BT.2020
Transfer characteristics : PQ
Matrix coefficients : BT.2020 non-constant
Mastering display color pri: Display P3
Mastering display luminance: min: 0.0050 cd/m2, max: 1000 cd/m2
Maximum Content Light Level: 1000 cd/m2
Maximum Frame-Average Light: 642 cd/m2

Audio #1
ID : 2
Format : AC-3
Format/Info : Audio Coding 3
Commercial name : Dolby Digital
Codec ID : A_AC3
Duration : 1 h 54 min
Bit rate mode : Constant
Bit rate : 384 kb/s
Channel(s) : 6 channels
Channel layout : L R C LFE Ls Rs
Sampling rate : 48.0 kHz
Frame rate : 31.250 FPS (1536 SPF)
Compression mode : Lossy
Stream size : 313 MiB (2%)
Title : Дубляж [Veles]
Language : Russian
Service kind : Complete Main
Default : Yes
Forced : Yes

Audio #2
ID : 3
Format : AC-3
Format/Info : Audio Coding 3
Commercial name : Dolby Digital
Codec ID : A_AC3
Duration : 1 h 54 min
Bit rate mode : Constant
Bit rate : 192 kb/s
Channel(s) : 2 channels
Channel layout : L R
Sampling rate : 48.0 kHz
Frame rate : 31.250 FPS (1536 SPF)
Compression mode : Lossy
Stream size : 157 MiB (1%)
Title : MVO [TVShows]
Language : Russian
Service kind : Complete Main
Default : No
Forced : No

Audio #3
ID : 4
Format : E-AC-3
Format/Info : Enhanced AC-3
Commercial name : Dolby Digital Plus
Codec ID : A_EAC3
Duration : 1 h 54 min
Bit rate mode : Constant
Bit rate : 640 kb/s
Channel(s) : 6 channels
Channel layout : L R C LFE Ls Rs
Sampling rate : 48.0 kHz
Frame rate : 31.250 FPS (1536 SPF)
Compression mode : Lossy
Stream size : 522 MiB (4%)
Title : Original
Language : English
Service kind : Complete Main
Default : No
Forced : No

Text #1
ID : 5
Format : UTF-8
Codec ID : S_TEXT/UTF8
Codec ID/Info : UTF-8 Plain Text
Duration : 1 h 41 min
Bit rate : 51 b/s
Count of elements : 1307
Stream size : 37.9 KiB (0%)
Title : Full
Language : English
Default : No
Forced : No

Text #2
ID : 6
Format : UTF-8
Codec ID : S_TEXT/UTF8
Codec ID/Info : UTF-8 Plain Text
Duration : 1 h 52 min
Bit rate : 56 b/s
Count of elements : 1800
Stream size : 46.4 KiB (0%)
Title : SDH
Language : English
Default : No
Forced : No




Скачать Флешбэк через торрент https://i7-imageban-ru.translate.goog/out/2022/07/03/fd37bf0ab45645c7e6fc31bded36bc0c.png Скачать, смотреть онлайн Флешбэк бесплантно в хорошем качестве Описание: Не выполнив заказ серьезной криминальной организации, киллер с болезнью Альцгеймера понимает, что теперь охота открыта на него ... 9.8 10 6
Торрент: Зарегистрирован [2022-06-22 03:10] · скачан: 178 раз
Статус: √ проверено
Размер: 12.59 GB
Как cкачать? Как скачать Флешбэк через торрент | UTorrent

% Раздел Тема Автор DL S | L
T Фильмы 2022 (Звук TS, Cam, VO, DVO) [ 2.18 GB ] Флешбэк / Memory | | DLRip-AVC killermax2013 Скачать
5 | 0
Ultra HD (UHD: 2K, 4K, 8K) [ 43.31 GB ] Флешбэк / Memory | TVShows | 2160p bober100 Скачать
2 | 0
Фильмы 2022 [DVDrip, WEB-DLRip, HDrip] (DUB, MVO) [ 2.13 GB ] Флешбэк / Memory | TVShows | BDRip bober100 Скачать
5 | 0
Наши фильмы (Blu-ray, BD-Remux, HDDVD) [ 29.02 GB ] Флешбэк / Memory | TVShows | BD Remux 1080p bober100 Скачать
1 | 0
Фильмы (WEB-DL 720p, 1080p) [ 3.02 GB ] Флешбэк / Memory | TVShows | 720p bober100 Скачать
9 | 0
Фильмы 2022 [DVDrip, WEB-DLRip, HDrip] (DUB, MVO) [ 1.41 GB ] Флешбэк / Memory | Велес | BDRip bober100 Скачать
2 | 0
T Фильмы 2022 (Звук TS, Cam, VO, DVO) [ 2.22 GB ] Флешбэк / Memory | Pazl Voice | DLRip-AVC Lithuania Скачать
159 | 0

28-11-2019 20:33  


Отключить вcю реклaмy на сайте, в т.ч. и в плеере онлайн просмотра!

    Дорогой пользователь! Огромная просьба, поблагодарите релизера, оцените раздачу и оставьте свои комментарий, если Вы скачали Флешбэк через торрент бесплатно!!
    Комментировать посты могут только пользователи прошедшие не сложную регистрацию
    Показать сообщения:    


    Флешбэк через торрент
    Скачать бесплатно Флешбэк
    Флешбэк скачать торрент
    Флешбэк смотреть онлайн
    Cкачать фильм Флешбэк бесплатно
    Флешбэк скачать торрент в хорошем качестве
    Флешбэк смотреть онлайн бесплатно в хорошем качестве
    Вы не можете начинать темы
    Вы не можете отвечать на сообщения
    Вы не можете редактировать свои сообщения
    Вы не можете удалять свои сообщения
    Вы не можете голосовать в опросах
    Вы не можете прикреплять файлы к сообщениям
    Вы можете скачивать файлы
    Флешбэк / Memory [2022, Боевик, триллер, UHD WEB-DL-HEVC 2160p] Дубляж [Велес] +MVO [TVShows] смотреть онлайн, скачать торрент picoco.icu