Всегда рабочее зеркало без VPN и Proxy просто перед .vidak.icu напиши любое слово или цифру, Пример http://t5a6.vidak.icu

MVO

Лицензия

1 сезон

1

1 сезон

iTunes

1 сезон

13

1 сезон

Deluxe

pack

Рекомендуем

Пиратка

30

ВАЖНО

RePack

MK11

RePack

jed

RePack

fifa19

RePack

RDR2

RePack

NEED FOR SPEED™ PAYBACK

Кинопоиск HD

6 сезон

 Острые козырьки 6 сезон

Все сериалы

все сериалы на PB.wtf

RePack

FAR CRY 5

Anonymous, нам критически не хватает 2100 руб. на оплату серверов и переферии за МАЙ, помоги нам пожалуйста, вся надежда только на тебя. В благодарность мы отключим тебе всю рекламу на сайте!

×
  
Magnet ссылка

Вперёд в 3D / Onward in 3D (Дэн Скэнлон) [2020 г., мультфильм, фэнтези, комедия, приключения, 3D BDRip 1080p, Дубляж iTunes] Анаглиф (Дюбуа) от R.G. HD-Films pb.wtf

Вперёд в 3D через торрент pb.wtf

Раздают: 1 [ 0 KB/s ] Качают: 1 [ 0 KB/s ]
Размер: 5.41 GB | Добавлен: 4 д. назад | Торрент скачан:3 раза
Смотреть онлайн Вперёд в 3D | Скачать    Ребята, помогите собрать деньги на оплату серверов!!!

22-06-2022 09:25 Вперёд в 3D Скачать торрент  

Вперёд в 3D / Onward in 3D
Год выпуска: 2020
Страна: США
Жанр: мультфильм, фэнтези, комедия, приключения
Продолжительность: 01:42:22
Перевод: Дубляж iTunes
Субтитры: Русские (Forced вшитые, full), английские

Режиссер: Дэн Скэнлон

Бюджет: $200 000 000
Премьера в мире: 21 февраля 2020

rating

В ролях: Том Холланд, Крис Пратт, Джулия Луис-Дрейфус, Октавия Спенсер, Мэл Родригес, Кайл Борнхаймер, Лина Уэйте, Али Вонг, Трейси Ульман, Уилмер Вальдеррама

Описание: Когда-то давно в сказочном мире царила магия, но после открытия электричества маги стали не нужны, и развитие пошло по техногенному пути. Теперь эльфы, тролли, гоблины, мантикоры, феи, кентавры и единороги летают на самолетах, пользуются автомобилями и мобильниками и ведут в целом прозаичную жизнь.
Братья-эльфы Иэн и Барли Лайтфуты воспитывались одной мамой, потому что их отец умер, когда они были ещё совсем маленькими. На 16-летие Иэну достаётся посох отца, и магическое заклинание, которое должно вернуть того к жизни на один день, но волшебный кристалл исчезает, воскресив только нижнюю половину папы. Барли, большой любитель квестов, невероятно рад — прихватив полупапу, братья отправляются в приключение на поиски другого кристалла.


Доп. информация: Формат 3D: Анаглиф (Дюбуа)



Качество: 3D BDRip 1080p
Формат: MKV
Видео кодек: H.264
Аудио кодек: AC3
Видео: 1920 x 1080 (16:9), 6540 kbps, 23,976 fps, 0.132 bpp
Аудио#1: Русский / AC3 / 48 KHz / 5.1 ch / 384 Kbps (Дубляж - iTunes)
Аудио#2: Английский / AC3 / 48 KHz / 5.1 ch / 640 Kbps (Original - BD 3D)
Релиз от: Автор рипа: slaventi-69
x264 [info]: profile High, level 4.1
x264 [info]: frame I:1497 Avg QP:12.83 size:170893
x264 [info]: frame P:40997 Avg QP:14.15 size: 61232
x264 [info]: frame B:104760 Avg QP:15.85 size: 21520
x264 [info]: consecutive B-frames: 4.3% 4.9% 15.2% 38.4% 37.2%


Общее
Уникальный идентификатор : 254402958740713559805343743370488610111 (0xBF643A452B6E118733ACBAD839B27D3F)
Полное имя : G:\60 FPS\Onward.(2019).3D.(Anaglyph_Dubois).mkv
Формат : Matroska
Версия формата : Version 4
Размер файла : 5,41 Гбайт
Продолжительность : 1 ч. 42 м.
Общий поток : 7566 Кбит/сек
Название фильма : Вперёд / Onward (2019) in 3D (Anaglyph_Dubois)
Дата кодирования : UTC 2022-06-21 10:47:43
Программа кодирования : mkvmerge v25.0.0 ('Prog Noir') 64-bit
Библиотека кодирования : libebml v1.3.6 + libmatroska v1.4.9

Видео
Идентификатор : 1
Формат : AVC
Формат/Информация : Advanced Video Codec
Профиль формата : High@L4.1
MultiView_Count : 2
MultiView_Layout : Anaglyph (cyan/red)
Настройки формата : CABAC / 4 Ref Frames
Параметр CABAC формата : Да
Параметр RefFrames формата : 4 кадра
Идентификатор кодека : V_MPEG4/ISO/AVC
Продолжительность : 1 ч. 42 м.
Битрейт : 6540 Кбит/сек
Ширина : 1920 пикселей
Высота : 1080 пикселей
Соотношение сторон : 16:9
Режим частоты кадров : Постоянный
Частота кадров : 23,976 кадра/сек
Цветовое пространство : YUV
Субдискретизация насыщенности : 4:2:0
Битовая глубина : 8 бит
Тип развёртки : Прогрессивная
Бит/(Пиксели*Кадры) : 0.132
Размер потока : 4,68 Гбайт (86%)
Заголовок : slaventi-69 ( R.G. HD-Films ) 3Д (Anaglyph_Dubois)
Библиотека кодирования : x264 core 130 r2273 b3065e6
Настройки программы : cabac=1 / ref=4 / deblock=1:-3:-3 / analyse=0x3:0x133 / me=umh / subme=9 / psy=1 / psy_rd=1.00:0.00 / mixed_ref=1 / me_range=32 / chroma_me=1 / trellis=2 / 8x8dct=1 / cqm=0 / deadzone=21,11 / fast_pskip=0 / chroma_qp_offset=-2 / threads=8 / lookahead_threads=4 / sliced_threads=0 / nr=0 / decimate=1 / interlaced=0 / bluray_compat=0 / constrained_intra=0 / bframes=4 / b_pyramid=2 / b_adapt=2 / b_bias=0 / direct=1 / weightb=1 / open_gop=0 / weightp=2 / keyint=600 / keyint_min=23 / scenecut=40 / intra_refresh=0 / rc=crf / mbtree=0 / crf=19.5 / qcomp=0.60 / qpmin=0 / qpmax=69 / qpstep=4 / ip_ratio=1.40 / pb_ratio=1.30 / aq=1:1.00
Язык : English
Default : Да
Forced : Нет

Аудио #1
Идентификатор : 2
Формат : AC-3
Формат/Информация : Audio Coding 3
Коммерческое название : Dolby Digital
Идентификатор кодека : A_AC3
Продолжительность : 1 ч. 42 м.
Вид битрейта : Постоянный
Битрейт : 384 Кбит/сек
Каналы : 6 каналов
Channel layout : L R C LFE Ls Rs
Частота : 48,0 КГц
Частота кадров : 31,250 кадров/сек (1536 SPF)
Битовая глубина : 16 бит
Метод сжатия : С потерями
Размер потока : 281 Мбайт (5%)
Заголовок : Дубляж (iTunes)
Язык : Russian
ServiceKind/String : Complete Main
Default : Да
Forced : Нет

Аудио #2
Идентификатор : 3
Формат : AC-3
Формат/Информация : Audio Coding 3
Коммерческое название : Dolby Digital
Идентификатор кодека : A_AC3
Продолжительность : 1 ч. 42 м.
Вид битрейта : Постоянный
Битрейт : 640 Кбит/сек
Каналы : 6 каналов
Channel layout : L R C LFE Ls Rs
Частота : 48,0 КГц
Частота кадров : 31,250 кадров/сек (1536 SPF)
Битовая глубина : 16 бит
Метод сжатия : С потерями
Размер потока : 469 Мбайт (8%)
Заголовок : Original (BD 3D)
Язык : English
ServiceKind/String : Complete Main
Default : Нет
Forced : Нет

Текст #1
Идентификатор : 4
Формат : UTF-8
Идентификатор кодека : S_TEXT/UTF8
Идентификатор кодека/Информация : UTF-8 Plain Text
Продолжительность : 1 ч. 31 м.
Битрейт : 113 бит/сек
ElementCount : 1555
Размер потока : 76,2 Кбайт (0%)
Заголовок : Полные
Язык : Russian
Default : Нет
Forced : Нет

Текст #2
Идентификатор : 5
Формат : UTF-8
Идентификатор кодека : S_TEXT/UTF8
Идентификатор кодека/Информация : UTF-8 Plain Text
Продолжительность : 1 ч. 41 м.
Битрейт : 73 бит/сек
ElementCount : 1904
Размер потока : 54,6 Кбайт (0%)
Заголовок : SDH (BD 3D)
Язык : English
Default : Нет
Forced : Нет

Меню
00:00:00.000 : : 1. Prologue
00:02:30.024 : : 2. Chaotic House
00:07:06.384 : : 3. Dad's Legacy
00:08:14.326 : : 4. School Fail
00:12:45.014 : : 5. Tape Recorder
00:14:53.725 : : 6. The Gift
00:19:21.034 : : 7. Conjuring Dad
00:23:46.048 : : 8. Off We Go
00:25:34.740 : : 9. Mom Finds Note
00:26:11.109 : : 10. Loosen Up
00:27:25.434 : : 11. Manticore's Tavern
00:30:02.133 : : 12. Fallen Idol
00:32:49.133 : : 13. The Plan
00:34:43.621 : : 14. Mom and Manticore
00:36:40.780 : : 15. Bigger Man
00:40:41.980 : : 16. Gas Station
00:42:48.731 : : 17. The Curse
00:44:02.139 : : 18. Sprite Insult
00:45:41.112 : : 19. Driving Test
00:47:49.157 : : 20. Honesty
00:52:01.367 : : 21. Dance Fight
00:55:12.141 : : 22. Pawn Shop
00:57:23.938 : : 23. Trust Bridge
01:02:23.322 : : 24. Change of Plans
01:04:02.963 : : 25. Sacrifice
01:07:13.070 : : 26. Following Ravens
01:08:49.039 : : 27. Underground
01:10:06.158 : : 28. To the Skies
01:11:12.266 : : 29. Reward
01:13:13.054 : : 30. Working Together
01:15:58.720 : : 31. Lowest Low
01:17:37.025 : : 32. Father Figure
01:20:26.319 : : 33. Dragon High
01:25:01.261 : : 34. Master Wizard
01:26:59.587 : : 35. Meeting Dad
01:30:10.779 : : 36. Epilogue
01:32:51.898 : : 37. Credits

Просьба к переливающим на другие сайты, в оформлении указывайте пожалуйста авторство группы R.G. HD-Films pb.wtf



Скачать Вперёд в 3D через торрент https://i6.imageban.ru/out/2021/05/08/0bf8b8e7bcf71c832ff2302c07723931.jpg Скачать, смотреть онлайн Вперёд в 3D бесплантно в хорошем качестве Описание: Когда-то давно в сказочном мире царила магия, но после открытия электричества маги стали не нужны, и развитие пошло по ... 10 10 1
Торрент: Зарегистрирован [2022-06-22 09:25] · скачан: 3 раз
Статус: √ проверено
Размер: 5.41 GB
Как cкачать? Как скачать Вперёд в 3D через торрент | UTorrent

28-11-2019 20:33  

Отключить всю рекламу на сайте

    Дорогой пользователь! Огромная просьба, поблагодарите релизера, оцените раздачу и оставьте свои комментарий, если Вы скачали Вперёд в 3D через торрент бесплатно!
    Комментировать посты могут только пользователи прошедшие не сложную регистрацию
    Показать сообщения:    

    Вперёд в 3D через торрент
    Скачать бесплатно Вперёд в 3D
    Вперёд в 3D скачать торрент
    Вперёд в 3D смотреть онлайн
    Cкачать фильм Вперёд в 3D бесплатно
    Вперёд в 3D скачать торрент в хорошем качестве
    Вперёд в 3D смотреть онлайн бесплатно в хорошем качестве


    Вы не можете начинать темы
    Вы не можете отвечать на сообщения
    Вы не можете редактировать свои сообщения
    Вы не можете удалять свои сообщения
    Вы не можете голосовать в опросах
    Вы не можете прикреплять файлы к сообщениям
    Вы можете скачивать файлы