Всегда рабочее зеркало без VPN и Proxy просто перед .vidak.icu напиши любое слово или цифру, Пример http://vp0l.vidak.icu

MVO

Лицензия

1 сезон

1

1 сезон

iTunes

1 сезон

13

1 сезон

Deluxe

pack

Рекомендуем

Пиратка

30

ВАЖНО

RePack

MK11

RePack

jed

RePack

fifa19

RePack

RDR2

RePack

NEED FOR SPEED™ PAYBACK

Кинопоиск HD

6 сезон

 Острые козырьки 6 сезон

Все сериалы

все сериалы на PB.wtf

RePack

FAR CRY 5

Anonymous, нам критически не хватает 2100 руб. на оплату серверов и переферии за МАЙ, помоги нам пожалуйста, вся надежда только на тебя. В благодарность мы отключим тебе всю рекламу на сайте!

×
  
Magnet ссылка

Точка кипения / Boiling Point (Фил Барантини) [2021, Триллер, драма, WEB-DL 1080p] DUB [Мосфильм-Мастер] pb.wtf

Точка кипения через торрент pb.wtf

Раздают: 30 [ 1 MB/s ] Качают: 1 [ 0 KB/s ]
Размер: 5.3 GB | Добавлен: 5 д. назад | Торрент скачан:184 раза
Смотреть онлайн Точка кипения | Скачать    Ребята, помогите собрать деньги на оплату серверов!!!

22-06-2022 21:41 Точка кипения Скачать торрент  

Точка кипения
Boiling Point

Год выпуска: 2021
Страна: Великобритания
Студия: Alpine Films, Ascendant Films, Bromantics
Жанр: Триллер, драма
Продолжительность: 01:34:57
Перевод: Дублированный | Мосфильм-Мастер
Субтитры: Русские (Full), английские

Режиссер: Фил Барантини

rating

В ролях: Стивен Грэм, Джейсон Флеминг, Рэй Пантаки, Ханна Уолтерс, Идзука Хойл, Винетт Робинсон, Айне Роуз Дейли, Лурдес Фаберес, Малачи Кирби

Описание: Шеф-повар ресторана Энди в один вечер сталкивается с проблемами в личной жизни и на работе. Пытаясь уладить разногласия с близкими, Энди упускает ситуацию на кухне, из-за чего вся работа разваливается. К тому же в ресторан одновременно приходят блогеры, желающие написать обзор на место, известный кулинарный критик и инспектор по продовольствию. Энди понимает, что его терпение и нервы достигают точки кипения.

Качество: WEB-DL 1080p
Формат: MKV

Видео: MPEG-4 AVC, 1920x798, 6709 Kbit/s, 24.000 fps
Аудио #01: 48 kHz, AC3, 5.1, 448 Kbps | Дублированный | Мосфильм-Мастер | RUS |
Аудио #02: 48 kHz, E-AC3, 5.1, 448 Kbps | Дублированный | Мосфильм-Мастер | RUS |
Аудио #03: 48 kHz, AC3, 5.1, 384 Kbps | Оригинал | ENG |
скриншот  скриншот  скриншот  скриншот  скриншот  

General
Unique ID : 92634481742867511523590053097837317611 (0x45B0C091F52D68288346C81FDCE24DEB)
Complete name : D:\Video1\Boiling.Point.2021.WEB-DL.1080p.seleZen.mkv
Format : Matroska
Format version : Version 4
File size : 5.30 GiB
Duration : 1 h 35 min
Overall bit rate : 7 988 kb/s
Movie name : Boiling Point 2021 from seleZen
Encoded date : UTC 2022-06-22 21:28:39
Writing application : mkvmerge v59.0.0 ('Shining Star') 64-bit
Writing library : libebml v1.4.2 + libmatroska v1.6.4

Video
ID : 1
Format : AVC
Format/Info : Advanced Video Codec
Format profile : High@L4
Format settings : CABAC / 5 Ref Frames
Format settings, CABAC : Yes
Format settings, Reference : 5 frames
Codec ID : V_MPEG4/ISO/AVC
Duration : 1 h 34 min
Bit rate : 6 709 kb/s
Width : 1 920 pixels
Height : 798 pixels
Display aspect ratio : 2.40:1
Frame rate mode : Constant
Frame rate : 24.000 FPS
Color space : YUV
Chroma subsampling : 4:2:0
Bit depth : 8 bits
Scan type : Progressive
Bits/(Pixel*Frame) : 0.182
Stream size : 4.45 GiB (84%)
Language : English
Default : Yes
Forced : No
Color range : Limited
Color primaries : BT.709
Transfer characteristics : BT.709
Matrix coefficients : BT.709

Audio #1
ID : 2
Format : AC-3
Format/Info : Audio Coding 3
Commercial name : Dolby Digital
Codec ID : A_AC3
Duration : 1 h 35 min
Bit rate mode : Constant
Bit rate : 448 kb/s
Channel(s) : 6 channels
Channel layout : L R C LFE Ls Rs
Sampling rate : 48.0 kHz
Frame rate : 31.250 FPS (1536 SPF)
Compression mode : Lossy
Stream size : 304 MiB (6%)
Title : Dub
Language : Russian
Service kind : Complete Main
Default : Yes
Forced : Yes

Audio #2
ID : 3
Format : E-AC-3
Format/Info : Enhanced AC-3
Commercial name : Dolby Digital Plus
Codec ID : A_EAC3
Duration : 1 h 35 min
Bit rate mode : Constant
Bit rate : 448 kb/s
Channel(s) : 6 channels
Channel layout : L R C LFE Ls Rs
Sampling rate : 48.0 kHz
Frame rate : 31.250 FPS (1536 SPF)
Compression mode : Lossy
Stream size : 304 MiB (6%)
Title : Dub
Language : Russian
Service kind : Complete Main
Default : No
Forced : No

Audio #3
ID : 4
Format : AC-3
Format/Info : Audio Coding 3
Commercial name : Dolby Digital
Codec ID : A_AC3
Duration : 1 h 34 min
Bit rate mode : Constant
Bit rate : 384 kb/s
Channel(s) : 6 channels
Channel layout : L R C LFE Ls Rs
Sampling rate : 48.0 kHz
Frame rate : 31.250 FPS (1536 SPF)
Compression mode : Lossy
Stream size : 261 MiB (5%)
Title : Original
Language : English
Service kind : Complete Main
Default : No
Forced : No

Text #1
ID : 5
Format : UTF-8
Codec ID : S_TEXT/UTF8
Codec ID/Info : UTF-8 Plain Text
Duration : 1 h 28 min
Bit rate : 143 b/s
Count of elements : 2028
Stream size : 92.5 KiB (0%)
Title : Full [Dark_Alice]
Language : Russian
Default : No
Forced : No

Text #2
ID : 6
Format : UTF-8
Codec ID : S_TEXT/UTF8
Codec ID/Info : UTF-8 Plain Text
Duration : 1 h 28 min
Bit rate : 104 b/s
Count of elements : 2102
Stream size : 67.5 KiB (0%)
Title : Full
Language : English
Default : No
Forced : No

pb.wtf



Скачать Точка кипения через торрент https://i120.fastpic.org/big/2022/0623/cc/dafb9010fb6231e98ffd2dec755118cc.jpg Скачать, смотреть онлайн Точка кипения бесплантно в хорошем качестве Описание: Шеф-повар ресторана Энди в один вечер сталкивается с проблемами в личной жизни и на работе. Пытаясь уладить разногласия с ... 10 10 9
Торрент: Зарегистрирован [2022-06-22 21:41] · скачан: 184 раз
Статус: √ проверено
Размер: 5.3 GB
Как cкачать? Как скачать Точка кипения через торрент | UTorrent

% Раздел Тема Автор DL S | L
Фильмы 2021 [DVDrip, WEB-DLRip, HDrip] (DUB, MVO) [ 1.46 GB ] Точка кипения / Boiling Point [2021 WEB-DLRip] DUB [Мосфильм-Мастер] bober100 Скачать
16 | 1
Фильмы до 2000 г. [ 1.46 GB ] Точка кипения / Boiling Point [1993 HDTVRip] [DVO] killermax2013 Скачать
1 | 0
Action FPS (1st Person) [ 1.79 GB ] Xenus. Точка Кипения / Boiling Point. Road to Hell [Repack RU Action RPG 3D 1st Person] от R.G.REVOLUTiON Russian Mafia Скачать
1 | 0


Последний раз редактировалось: bober100 (2022-06-22 22:07), всего редактировалось 2 раз(а)

28-11-2019 20:33  

Отключить всю рекламу на сайте

23-06-2022 14:09 Точка кипения Скачать торрент  

После того, что сделал этот повар в "Подпольной Империи", ему лучше не перечить)))pb.wtf



24-06-2022 20:18 Точка кипения Скачать торрент  

какая ШЛЯПА! полный отстой! ... не тратьте время! ниочем аще кинчик pb.wtf



    Дорогой пользователь! Огромная просьба, поблагодарите релизера, оцените раздачу и оставьте свои комментарий, если Вы скачали Точка кипения через торрент бесплатно!
    Комментировать посты могут только пользователи прошедшие не сложную регистрацию
    Показать сообщения:    

    Точка кипения через торрент
    Скачать бесплатно Точка кипения
    Точка кипения скачать торрент
    Точка кипения смотреть онлайн
    Cкачать фильм Точка кипения бесплатно
    Точка кипения скачать торрент в хорошем качестве
    Точка кипения смотреть онлайн бесплатно в хорошем качестве


    Вы не можете начинать темы
    Вы не можете отвечать на сообщения
    Вы не можете редактировать свои сообщения
    Вы не можете удалять свои сообщения
    Вы не можете голосовать в опросах
    Вы не можете прикреплять файлы к сообщениям
    Вы можете скачивать файлы