Всегда рабочее зеркало без VPN и Proxy просто перед .vidak.icu напиши любое слово или цифру, Пример http://j200.vidak.icu

Лицензия

MVO

1 сезон

1

1 сезон

iTunes

1 сезон

13

1 сезон

Deluxe

pack

Рекомендуем

Repack

30

ВАЖНО

RePack

MK11

RePack

jed

RePack

fifa19

RePack

RDR2

RePack

NEED FOR SPEED™ PAYBACK

Кинопоиск HD

6 сезон

 Острые козырьки 6 сезон

Все сериалы

все сериалы на PB.wtf

RePack

FAR CRY 5
  
Magnet ссылка

Жиза / Сезон: 1 / Серии: 1-8 из 8 (Арсений Робак) [2022, Драма, приключения, WEBRip] pb.wtf

Жиза через торрент pb.wtf

Раздают: 6 [ 13 KB/s ] Качают: 3 [ 0 KB/s ]
Размер: 4.41 GB | Добавлен: 12 д. назад | Торрент скачан:78 раз
Смотреть онлайн Жиза | Скачать    Ребята, помогите собрать деньги на оплату серверов!!!

22-06-2022 21:52 Жиза Скачать торрент  

Жиза
Год выпуска: 2022
Страна: Россия
Жанр: Драма, приключения
Продолжительность: ~ 00:46:00 серия
Перевод: Не требуется
Субтитры: отсутствуют

Режиссер: Арсений Робак



В ролях: Максим Сапрыкин, Валентина Ляпина, Никита Кологривый, Александр Робак, Екатерина Карташова, Никита Зинченко, Арсений Робак, Александр Новиков (X), Роман Клепченко, Даниил Лебедев, Карина Александрова (II), Дмитрий Козельский, Григорий Багров, Илья Хвостиков, Джемал Тетруашвили, Александра Мошкова, Андрей Мясников (II), Марина Дровосекова, Михаил Тарабукин, Константин Адаев, Александра Богданова, Самад Мансуров, Никита Патуев, Виктор Немец, Наталья Тетенова, Дарья Белоусова (II), Валентина Муравская, Даниил Лебедев (II), Григорий Верник

Описание: Доведенные до отчаяния 15-летние детдомовцы — самая красивая девочка класса Полина и безответно влюбленный в нее Якут — решают сбежать из маленького провинциального городка, украв деньги главаря местной подростковой банды. Но побег полон смертельных опасностей. Справятся ли ребята и что ждет их в новой жизни?

Качество: WEBRip
Формат: AVI

Видео: 720x304 (2.37:1), 25 fps, XviD ~1750 kbps avg, 0.319 bit/pixel
Аудио: 48.0 kHz, AC3 Dolby Digital, 2/0 (L,R) ch, ~ 192 kbps
скриншот  скриншот  скриншот  скриншот  скриншот  скриншот  

General
Complete name : D:\Zhiza.S01.WEB-DLRip.25Kuzmich\Zhiza.s01e01.WEB-DLRip.25Kuzmich.avi
Format : AVI
Format/Info : Audio Video Interleave
File size : 615 MiB
Duration : 44 min 10 s
Overall bit rate : 1 947 kb/s
Writing application : VirtualDubMod 1.5.10.3 | www.virtualdub-fr.org || (build 2550/release)
Writing library : VirtualDubMod build 2550/release

Video
ID : 0
Format : MPEG-4 Visual
Format profile : Advanced [email protected]
Format settings : BVOP1
Format settings, BVOP : 1
Format settings, QPel : No
Format settings, GMC : No warppoints
Format settings, Matrix : Default (MPEG)
Codec ID : XVID
Codec ID/Hint : XviD
Duration : 44 min 10 s
Bit rate : 1 745 kb/s
Width : 720 pixels
Height : 304 pixels
Display aspect ratio : 2.35:1
Frame rate : 25.000 FPS
Color space : YUV
Chroma subsampling : 4:2:0
Bit depth : 8 bits
Scan type : Progressive
Compression mode : Lossy
Bits/(Pixel*Frame) : 0.319
Stream size : 551 MiB (90%)
Writing library : XviD 73

Audio
ID : 1
Format : AC-3
Format/Info : Audio Coding 3
Codec ID : 2000
Duration : 44 min 9 s
Bit rate mode : Constant
Bit rate : 192 kb/s
Channel(s) : 2 channels
Channel positions : Front: L R
Sampling rate : 48.0 kHz
Frame rate : 31.250 FPS (1536 SPF)
Bit depth : 16 bits
Compression mode : Lossy
Stream size : 60.7 MiB (10%)
Alignment : Split accross interleaves
Interleave, duration : 40 ms (1.00 video frame)
Interleave, preload duratio : 500 ms
Service kind : Complete Main

Внимание! Раздача ведётся путём добавления новых серий; при каждом добавлении создаётся новый торрент. Чтобы начать докачку новой серии, пользователям необходимо сделать следующее:
(1) остановить скачивание,
(2) удалить старый торрент у себя из клиента (старые серии удалять не надо),
(3) скачать новый торрент и запустить его у себя в клиенте вместо старого, при этом указать клиенту путь в старую папку куда и должно происходить скачивание новых серий.

Ваш клиент при этом должен произвести хеширование (проверку) старой папки (если не производит сам - помогите ему сделать это), и будет докачивать только те серии которых у вас ещё нет. Старые серии при этом не удаляются, а продолжают раздаваться!

Eсли вы уже удалили старые серии, то предотвратить повторную закачку старых серий можно, отжав галочку в соответсвующих местах при запуске нового торрента. По возможности, желательно не удалять старые серии как можно дольше чтобы релизёр не столько продолжал раздавать старые серии, а смог сконцентрироваться на новых.
pb.wtf



Скачать Жиза через торрент https://i120.fastpic.org/big/2022/0623/38/0e4518e677b800407ea8f5fb7d58a638.jpg Скачать, смотреть онлайн Жиза бесплантно в хорошем качестве Описание: Доведенные до отчаяния 15-летние детдомовцы — самая красивая девочка класса Полина и безответно влюбленный в нее Якут — решают ... 8 10 16
Торрент: Зарегистрирован [2022-08-04 02:21] · скачан: 78 раз
Статус: √ проверено
Размер: 4.41 GB
Как cкачать? Как скачать Жиза через торрент | UTorrent

% Раздел Тема Автор DL S | L
Наши сериалы [ 15.31 GB ] Жиза / Сезон: 1 / Серии: 1-8 из 8 + Фильм о фильме [2022 WEBRip 1080p] bober100 Скачать
4 | 0
Наши сериалы [ 3.97 GB ] Жиза / Сезон: 1 / Серии: 1-8 из 8 [2022 WEBRip-AVC] bober100 Скачать
11 | 4


Последний раз редактировалось: bober100 (2022-08-04 02:21), всего редактировалось 6 раз(а)

28-11-2019 20:33  

Отключить вcю реклaмy на сайте

23-06-2022 04:07 Жиза Скачать торрент  

3,5 года за убийство из огнестрела в здании суда ... не жиза , а шиза ))pb.wtf



    Дорогой пользователь! Огромная просьба, поблагодарите релизера, оцените раздачу и оставьте свои комментарий, если Вы скачали Жиза через торрент бесплатно!
    Комментировать посты могут только пользователи прошедшие не сложную регистрацию
    Показать сообщения:    

    Жиза через торрент
    Скачать бесплатно Жиза
    Жиза скачать торрент
    Жиза смотреть онлайн
    Cкачать фильм Жиза бесплатно
    Жиза скачать торрент в хорошем качестве
    Жиза смотреть онлайн бесплатно в хорошем качестве


    Вы не можете начинать темы
    Вы не можете отвечать на сообщения
    Вы не можете редактировать свои сообщения
    Вы не можете удалять свои сообщения
    Вы не можете голосовать в опросах
    Вы не можете прикреплять файлы к сообщениям
    Вы можете скачивать файлы