Доктор Стрэндж

Лицензия

Добыча

Дубляж

Уэнсдэй

1 сезон

Тор

Дубляж

В эфире

Дубляж

Там, где раки поют

MVO

Властелин колец

1 сезон

Deluxe

pack

Рекомендуем

30

Пиратка

ВАЖНО

ВАЖНО

Ghostwire

Пиратка

jed

RePack

nioh2

RePack

RDR2

RePack

NEED FOR SPEED™ PAYBACK

RePack

скачать торрент

Кинопоиск HD

Острые козырьки 6 сезон

6 сезон

FAR CRY 6

RePack

скачать торрент

Лицензия

скачать торрент

MVO

1

1 сезон

скачать торрент

1 сезон

скачать торрент

Лицензия

  

Фантастические твари: Тайны Дамблдора / Fantastic Beasts: The Secrets of Dumbledore (Дэвид Йейтс) [2022, Фэнтези, приключения, семейный, UHD BDRemux 2160p, (Dolby Vision Profile 8)] Дубляж (rus, ukr) [Лицензия / Официальный дубляж]

Фантастические твари: Тайны Дамблдора через торрент pb.wtf

Раздают: 1 [ 0 KB/s ]
Размер: 58.24 GB | Добавлен: 5 мес. 13 д. назад | Торрент скачан:157 раз
Смотреть онлайн | Скачать   

23-06-2022 10:53 Фантастические твари: Тайны Дамблдора Скачать торрент  

Фантастические твари: Тайны Дамблдора
Fantastic Beasts: The Secrets of Dumbledore

Год выпуска: 2022
Страна: Великобритания, США
Выпущено: Heyday Films, Warner Bros.
Жанр: Фэнтези, приключения, семейный
Продолжительность: 02:22:39
Перевод(ы): Дублированный | Лицензия ***Официальный дубляж.
Субтитры: Русские (Forced, full), украинские (Forced), английские

Режиссер: Дэвид Йейтс

rating

В ролях: Эдди Редмэйн, Джуд Лоу, Эзра Миллер, Дэн Фоглер, Элисон Судол, Каллум Тернер, Джессика Уильямс, Кэтрин Уотерстон, Мадс Миккельсен, Оливер Мазуччи

Описание: Профессор Альбус Дамблдор узнает, что могущественный темный волшебник Геллерт Грин-де-Вальд планирует захватить Влacть над миром. Понимая, что не сможет остановить его в одиночку, Дамблдор просит магозоолога Ньюта Саламандера возглавить команду из выдающихся волшебников и одного отважного магла-пекаря. Им предстоят невероятно опасные приключения, встреча со старыми и укрощение новых магических существ и борьба со сторонниками Грин-де-Вальда, которых становится все больше. Но какая роль в этой миссии уготована самому Дамблдору?

Качество: UHD BDRemux 2160p | Dolby Vision Profile 8
Формат: MKV

Видео: 3840x2160 at 23.976 fps, MPEG-H HEVC HDR, Dolby Vision ~ 54400 kbps avg
Аудио #01: 48 kHz, AC3, 5.1, 384 Kbps | Дублированный | Лицензия | RUS |
Аудио #02: 48 kHz, AC3, 5.1, 384 Kbps | Дублированный | Лицензия | UKR |
Аудио #03: 48 kHz, TrueHD, 7.1, 2742 Kbps | Оригинал | ENG |
Аудио #04: 48 kHz, AC3, 5.1, 448 Kbps | Оригинал | ENG |
скриншот  скриншот  скриншот  скриншот  скриншот  скриншот  

General
Unique ID: 122186197833720837842419025463296911056 (0x5BEC34AA0ED6A032A8E16AF0BBAFE6D0)
Complete name: E:VideosFantastic.Beasts.The.Secrets.of.Dumbledore.2022.D.BDREMUX.2160p.HDR.DVP8.seleZen.mkv
Format: Matroska
Format version: Version 4
File size: 58.2 GiB
Duration: 2 h 23 min
Overall bit rate mode: Variable
Overall bit rate: 58.3 Mb/s
Movie name: Fantastic Beasts The.Secrets of Dumbledore 2022 from seleZen
Encoded date: UTC 2022-06-23 08:14:42
Writing application: mkvmerge v59.0.0 ('Shining Star') 64-bit
Writing library: libebml v1.4.2 + libmatroska v1.6.4

Video
ID: 1
ID in the original source m: 4117 (0x1015)
Format: HEVC
Format/Info: High Efficiency Video Coding
Format profile: Main [email protected]@High
HDR format: Dolby Vision, Version 1.0, dvhe.08.06, BL+RPU, Blu-ray compatible / SMPTE ST 2086, HDR10 compatible
Codec ID: V_MPEGH/ISO/HEVC
Duration: 2 h 22 min
Bit rate: 54.4 Mb/s
Width: 3 840 pixels
Height: 2 160 pixels
Display aspect ratio: 16:9
Frame rate mode: Constant
Frame rate: 23.976 (24000/1001) FPS
Color space: YUV
Chroma subsampling: 4:2:0 (Type 2)
Bit depth: 10 bits
Bits/(Pixel*Frame): 0.274
Stream size: 54.2 GiB (93%)
Language: English
Default: No
Forced: No
Color range: Limited
Color primaries: BT.2020
Transfer characteristics: PQ
Matrix coefficients: BT.2020 non-constant
Mastering display color pri: Display P3
Mastering display luminance: min: 0.0001 cd/m2, max: 1000 cd/m2
Maximum Content Light Level: 500 cd/m2
Maximum Frame-Average Light: 54 cd/m2
Original source medium: Blu-ray

Audio #1
ID: 2
Format: AC-3
Format/Info: Audio Coding 3
Commercial name: Dolby Digital
Codec ID: A_AC3
Duration: 2 h 23 min
Bit rate mode: Constant
Bit rate: 384 kb/s
Channel(s): 6 channels
Channel layout: L R C LFE Ls Rs
Sampling rate: 48.0 kHz
Frame rate: 31.250 FPS (1536 SPF)
Compression mode: Lossy
Stream size: 393 MiB (1%)
Title: Дубляж [License]
Language: Russian
Service kind: Complete Main
Default: Yes
Forced: Yes

Audio #2
ID: 3
Format: AC-3
Format/Info: Audio Coding 3
Commercial name: Dolby Digital
Codec ID: A_AC3
Duration: 2 h 22 min
Bit rate mode: Constant
Bit rate: 384 kb/s
Channel(s): 6 channels
Channel layout: L R C LFE Ls Rs
Sampling rate: 48.0 kHz
Frame rate: 31.250 FPS (1536 SPF)
Compression mode: Lossy
Stream size: 392 MiB (1%)
Title: Дубляж [License]
Language: Ukrainian
Service kind: Complete Main
Default: No
Forced: No

Audio #3
ID: 4
Format: MLP FBA 16-ch
Format/Info: Meridian Lossless Packing FBA with 16-channel presentation
Commercial name: Dolby TrueHD with Dolby Atmos
Codec ID: A_TRUEHD
Duration: 2 h 22 min
Bit rate mode: Variable
Bit rate: 2 742 kb/s
Maximum bit rate: 4 389 kb/s
Channel(s): 8 channels
Channel layout: L R C LFE Ls Rs Lb Rb
Sampling rate: 48.0 kHz
Frame rate: 1 200.000 FPS (40 SPF)
Compression mode: Lossless
Stream size: 2.73 GiB (5%)
Title: Original
Language: English
Default: No
Forced: No
Number of dynamic objects: 11
Bed channel count: 1 channel
Bed channel configuration: LFE

Audio #4
ID: 5
Format: AC-3
Format/Info: Audio Coding 3
Commercial name: Dolby Digital
Format settings: Dolby Surround EX
Codec ID: A_AC3
Duration: 2 h 22 min
Bit rate mode: Constant
Bit rate: 448 kb/s
Channel(s): 6 channels
Channel layout: L R C LFE Ls Rs
Sampling rate: 48.0 kHz
Frame rate: 31.250 FPS (1536 SPF)
Compression mode: Lossy
Stream size: 457 MiB (1%)
Language: English
Service kind: Complete Main
Default: No
Forced: No

Text #1
ID: 6
Format: UTF-8
Codec ID: S_TEXT/UTF8
Codec ID/Info: UTF-8 Plain Text
Duration: 2 h 21 min
Bit rate: 0 b/s
Count of elements: 21
Stream size: 909 Bytes (0%)
Title: Forced
Language: Russian
Default: Yes
Forced: Yes

Text #2
ID: 7
Format: UTF-8
Codec ID: S_TEXT/UTF8
Codec ID/Info: UTF-8 Plain Text
Duration: 2 h 21 min
Bit rate: 50 b/s
Count of elements: 1245
Stream size: 52.6 KiB (0%)
Title: Full [License]
Language: Russian
Default: No
Forced: No

Text #3
ID: 8
Format: UTF-8
Codec ID: S_TEXT/UTF8
Codec ID/Info: UTF-8 Plain Text
Duration: 1 h 10 min
Bit rate: 1 b/s
Count of elements: 12
Stream size: 541 Bytes (0%)
Title: Forced
Language: Ukrainian
Default: No
Forced: No

Text #4
ID: 9
Format: UTF-8
Codec ID: S_TEXT/UTF8
Codec ID/Info: UTF-8 Plain Text
Duration: 2 h 16 min
Bit rate: 35 b/s
Count of elements: 1303
Stream size: 35.5 KiB (0%)
Title: Full
Language: English
Default: No
Forced: No

Text #5
ID: 10
Format: UTF-8
Codec ID: S_TEXT/UTF8
Codec ID/Info: UTF-8 Plain Text
Duration: 2 h 20 min
Bit rate: 45 b/s
Count of elements: 1823
Stream size: 47.2 KiB (0%)
Title: SDH
Language: English
Default: No
Forced: No

Menu
00:00:00.000: Глава 01
00:10:32.799: Глава 02
00:21:47.932: Глава 03
00:28:14.568: Глава 04
00:37:49.601: Глава 05
00:47:41.567: Глава 06
01:00:03.475: Глава 07
01:10:51.831: Глава 08
01:18:50.976: Глава 09
01:30:10.655: Глава 10
01:39:50.568: Глава 11
01:49:31.064: Глава 12
01:56:51.171: Глава 13
02:07:17.964: Глава 14
02:13:17.615: Глава 15




Скачать Фантастические твари: Тайны Дамблдора через торрент https://i120.fastpic.org/big/2022/0623/67/2116db5e90284082aed472170ba7b667.jpg Скачать, смотреть онлайн Фантастические твари: Тайны Дамблдора бесплантно в хорошем качестве Описание: Профессор Альбус Дамблдор узнает, что могущественный темный волшебник Геллерт Грин-де-Вальд планирует захватить Влacть над миром. ... 10 10 4
Торрент: Зарегистрирован [2022-06-23 10:53] · скачан: 157 раз
Статус: √ проверено
Размер: 58.24 GB
Как cкачать? Как скачать Фантастические твари: Тайны Дамблдора через торрент | UTorrent

% Раздел Тема Автор DL S | L
Фильмы 2022 [DVDrip, WEB-DLRip, HDrip] (DUB, MVO) [ 1.46 GB ] Фантастические твари: Тайны Дамблдора / Fantastic Beasts: The Secrets of Dumbledore | Лицензия | BDRip bober100 Скачать
9 | 0
Фильмы (Blu-ray, BD-Remux, HDDVD) [ 27.88 GB ] Фантастические твари: Тайны Дамблдора / Fantastic Beasts: The Secrets of Dumbledore | Лицензия | BD Remux 1080p bober100 Скачать
1 | 0
Ultra HD (UHD: 2K, 4K, 8K) [ 64.07 GB ] Фантастические твари: Тайны Дамблдора / Fantastic Beasts: The Secrets of Dumbledore | Лицензия | 2160p, (Dolby Vision bober100 Скачать
2 | 1
Фильмы [HD 720p, 1080p] (Хороший звук DUB, MVO) [ 7.74 GB ] Фантастические твари: Тайны Дамблдора / Fantastic Beasts: The Secrets of Dumbledore | Лицензия | 720p bober100 Скачать
2 | 0
Фильмы [HD 720p, 1080p] (Хороший звук DUB, MVO) [ 10.29 GB ] Фантастические твари: Тайны Дамблдора / Fantastic Beasts: The Secrets of Dumbledore | Лицензия | 1080p bober100 Скачать
5 | 0
Фильмы 2022 [DVDrip, WEB-DLRip, HDrip] (DUB, MVO) [ 748 MB ] Фантастические твари: Тайны Дамблдора / Fantastic Beasts: The Secrets of Dumbledore | HDRezka Studio | HDRip bober100 Скачать
1 | 0
Фильмы 2022 [DVDrip, WEB-DLRip, HDrip] (DUB, MVO) [ 2.12 GB ] Фантастические твари: Тайны Дамблдора / Fantastic Beasts: The Secrets of Dumbledore | Лицензия | BDRip bober100 Скачать
7 | 0

28-11-2019 20:33  


Отключить вcю реклaмy на сайте, в т.ч. и в плеере онлайн просмотра!

    Дорогой пользователь! Огромная просьба, поблагодарите релизера, оцените раздачу и оставьте свои комментарий, если Вы скачали Фантастические твари: Тайны Дамблдора через торрент бесплатно!!
    Комментировать посты могут только пользователи прошедшие не сложную регистрацию
    Показать сообщения:    


    Фантастические твари: Тайны Дамблдора через торрент
    Скачать бесплатно Фантастические твари: Тайны Дамблдора
    Фантастические твари: Тайны Дамблдора скачать торрент
    Фантастические твари: Тайны Дамблдора смотреть онлайн
    Cкачать фильм Фантастические твари: Тайны Дамблдора бесплатно
    Фантастические твари: Тайны Дамблдора скачать торрент в хорошем качестве
    Фантастические твари: Тайны Дамблдора смотреть онлайн бесплатно в хорошем качестве
    Вы не можете начинать темы
    Вы не можете отвечать на сообщения
    Вы не можете редактировать свои сообщения
    Вы не можете удалять свои сообщения
    Вы не можете голосовать в опросах
    Вы не можете прикреплять файлы к сообщениям
    Вы можете скачивать файлы
    Фантастические твари: Тайны Дамблдора / Fantastic Beasts: The Secrets of Dumbledore [2022, Фэнтези, приключения, семейный, UHD BDRemux 2160p, ] Дубляж [Лицензия / Официальный дубляж] смотреть онлайн, скачать торрент picoco.icu