Доктор Стрэндж

Лицензия

Добыча

Дубляж

Дом дракона

1 сезон

Тор

Дубляж

В эфире

Дубляж

Там, где раки поют

MVO

Властелин колец

1 сезон

Deluxe

pack

Рекомендуем

30

Пиратка

ВАЖНО

ВАЖНО

Ghostwire

Пиратка

jed

RePack

nioh2

RePack

RDR2

RePack

NEED FOR SPEED™ PAYBACK

RePack

скачать торрент

Кинопоиск HD

Острые козырьки 6 сезон

6 сезон

FAR CRY 6

RePack

скачать торрент

Лицензия

скачать торрент

MVO

1

1 сезон

скачать торрент

1 сезон

скачать торрент

Лицензия

  

Преступления будущего / Crimes of the Future (Дэвид Кроненберг) [2022, Ужасы, фантастика, драма, UHD WEB-DL 2160p] MVO [Jaskier]

Преступления будущего через торрент pb.wtf

Раздают: 4 [ 497 KB/s ] Качают: 1 [ 5 MB/s ]
Размер: 11.53 GB | Добавлен: 5 мес. 10 д. назад | Торрент скачан:288 раз
Смотреть онлайн | Скачать   

23-06-2022 12:13 Преступления будущего Скачать торрент  

Преступления будущего
Crimes of the Future

Год выпуска: 2022
Страна: Канада, Франция, Греция, Великобритания
Студия: Argonauts, Bell MediaCanadian Broadcasting Corporation (CBC)
Жанр: Ужасы, фантастика, драма
Продолжительность: 01:47:34
Перевод: Профессиональный (многоголосый) | Jaskier
Субтитры: Aнглийские

Режиссер: Дэвид Кроненберг

rating

В ролях: Вигго Мортенсен, Леа Сейду, Кристен Стюарт, Дон МакКеллар, Таная Битти, Джейсон Биттер, Велкетт Бунге, Дениз Капецца, Эфи Кантза, Лихи Корновски

Описание: Недалекое будущее. Человечество учится приспосабливаться к новому миру: у людей появился синдром ускоренной эволюции, из-за которого с телом начинают происходить удивительные изменения. Одни принимают новую реальность, а другие пытаются бороться любыми возможными способами.

Качество: UHD WEB-DL 2160p
Формат: MKV

Видео: 3836x2072 at 23.976 fps, MPEG-H HEVC HDR ~ 14300 kbps avg
Аудио #01: 48 kHz, AC3, 5.1, 448 Kbps | Профессиональный многоголосый | Jaskier | RUS |
Аудио #02: 48 kHz, E-AC3, 5.1, 640 Kbps | Оригинал | ENG |
скриншот  скриншот  скриншот  скриншот  скриншот  

General
Unique ID : 311452954872540981763104748638362746838 (0xEA4FA83EA1D6EF4C187A3EC7427D3FD6)
Complete name : D:Video1Crimes.of.the.Future.2022.WEB-DL.2160p.HDR.seleZen.mkv
Format : Matroska
Format version : Version 4
File size : 11.5 GiB
Duration : 1 h 47 min
Overall bit rate : 15.3 Mb/s
Movie name : Crimes of the Future 2022 from seleZen
Encoded date : UTC 2022-06-23 12:02:01
Writing application : mkvmerge v59.0.0 ('Shining Star') 64-bit
Writing library : libebml v1.4.2 + libmatroska v1.6.4

Video
ID : 1
Format : HEVC
Format/Info : High Efficiency Video Coding
Format profile : Main [email protected]@High
HDR format : SMPTE ST 2086, HDR10 compatible
Codec ID : V_MPEGH/ISO/HEVC
Duration : 1 h 47 min
Bit rate : 14.3 Mb/s
Width : 3 836 pixels
Height : 2 072 pixels
Display aspect ratio : 1.85:1
Frame rate mode : Constant
Frame rate : 23.976 FPS
Color space : YUV
Chroma subsampling : 4:2:0 (Type 2)
Bit depth : 10 bits
Bits/(Pixel*Frame) : 0.075
Stream size : 10.7 GiB (93%)
Language : English
Default : No
Forced : No
Color range : Limited
Color primaries : BT.2020
Transfer characteristics : PQ
Matrix coefficients : BT.2020 non-constant
Mastering display color pri: BT.2020
Mastering display luminance: min: 0.0050 cd/m2, max: 1000 cd/m2
Maximum Content Light Level: 5334 cd/m2
Maximum Frame-Average Light: 96 cd/m2

Audio #1
ID : 2
Format : AC-3
Format/Info : Audio Coding 3
Commercial name : Dolby Digital
Codec ID : A_AC3
Duration : 1 h 47 min
Bit rate mode : Constant
Bit rate : 448 kb/s
Channel(s) : 6 channels
Channel layout : L R C LFE Ls Rs
Sampling rate : 48.0 kHz
Frame rate : 31.250 FPS (1536 SPF)
Compression mode : Lossy
Stream size : 345 MiB (3%)
Title : MVO [Jaskier]
Language : Russian
Service kind : Complete Main
Default : Yes
Forced : Yes

Audio #2
ID : 3
Format : E-AC-3
Format/Info : Enhanced AC-3
Commercial name : Dolby Digital Plus
Codec ID : A_EAC3
Duration : 1 h 47 min
Bit rate mode : Constant
Bit rate : 640 kb/s
Channel(s) : 6 channels
Channel layout : L R C LFE Ls Rs
Sampling rate : 48.0 kHz
Frame rate : 31.250 FPS (1536 SPF)
Compression mode : Lossy
Stream size : 492 MiB (4%)
Title : Original
Language : English
Service kind : Complete Main
Default : No
Forced : No

Text #1
ID : 4
Format : UTF-8
Codec ID : S_TEXT/UTF8
Codec ID/Info : UTF-8 Plain Text
Duration : 1 h 37 min
Bit rate : 49 b/s
Count of elements : 1420
Stream size : 35.1 KiB (0%)
Title : Full
Language : English
Default : No
Forced : No

Text #2
ID : 5
Format : UTF-8
Codec ID : S_TEXT/UTF8
Codec ID/Info : UTF-8 Plain Text
Duration : 1 h 41 min
Bit rate : 56 b/s
Count of elements : 1824
Stream size : 42.0 KiB (0%)
Title : SDH
Language : English
Default : No
Forced : No

Menu
00:00:00.000 : Chapter 01
00:10:11.000 : Chapter 02
00:20:34.000 : Chapter 03
00:34:50.000 : Chapter 04
00:42:13.000 : Chapter 05
00:55:37.000 : Chapter 06
01:05:36.000 : Chapter 07
01:15:11.000 : Chapter 08
01:23:17.000 : Chapter 09
01:32:33.000 : Chapter 10
01:41:09.000 : Chapter 11




Скачать Преступления будущего через торрент https://i120.fastpic.org/big/2022/0623/59/d1afd20443d61826c6025b1adea4d459.jpg Скачать, смотреть онлайн Преступления будущего бесплантно в хорошем качестве Описание: Недалекое будущее. Человечество учится приспосабливаться к новому миру: у людей появился синдром ускоренной эволюции, из-за ... 10 10 7
Торрент: Зарегистрирован [2022-06-23 12:13] · скачан: 288 раз
Статус: √ проверено
Размер: 11.53 GB
Как cкачать? Как скачать Преступления будущего через торрент | UTorrent

% Раздел Тема Автор DL S | L
Фильмы 2022 [DVDrip, WEB-DLRip, HDrip] (DUB, MVO) [ 1.46 GB ] Преступления будущего / Crimes of the Future | Кипарис | BDRip bober100 Скачать
22 | 0
Фильмы (Blu-ray, BD-Remux, HDDVD) [ 29.9 GB ] Преступления будущего / Crimes of the Future | Jaskier | BD Remux 1080p bober100 Скачать
1 | 0
Фильмы [HD 720p, 1080p] (Хороший звук DUB, MVO) [ 10.49 GB ] Преступления будущего / Crimes of the Future | Jaskier | 1080p bober100 Скачать
4 | 0
Фильмы [HD 720p, 1080p] (Хороший звук DUB, MVO) [ 4.72 GB ] Преступления будущего / Crimes of the Future | Jaskier | 720p bober100 Скачать
5 | 0
Фильмы [HD 720p, 1080p] (Хороший звук DUB, MVO) [ 7.51 GB ] Преступления будущего / Crimes of the Future | Jaskier | 1080p bober100 Скачать
6 | 0

28-11-2019 20:33  


Отключить вcю реклaмy на сайте, в т.ч. и в плеере онлайн просмотра!

    Дорогой пользователь! Огромная просьба, поблагодарите релизера, оцените раздачу и оставьте свои комментарий, если Вы скачали Преступления будущего через торрент бесплатно!!
    Комментировать посты могут только пользователи прошедшие не сложную регистрацию
    Показать сообщения:    


    Преступления будущего через торрент
    Скачать бесплатно Преступления будущего
    Преступления будущего скачать торрент
    Преступления будущего смотреть онлайн
    Cкачать фильм Преступления будущего бесплатно
    Преступления будущего скачать торрент в хорошем качестве
    Преступления будущего смотреть онлайн бесплатно в хорошем качестве
    Вы не можете начинать темы
    Вы не можете отвечать на сообщения
    Вы не можете редактировать свои сообщения
    Вы не можете удалять свои сообщения
    Вы не можете голосовать в опросах
    Вы не можете прикреплять файлы к сообщениям
    Вы можете скачивать файлы
    Преступления будущего / Crimes of the Future [2022, Ужасы, фантастика, драма, UHD WEB-DL 2160p] MVO [Jaskier] смотреть онлайн, скачать торрент picoco.icu