Всегда рабочее зеркало без VPN и Proxy просто перед .vidak.icu напиши любое слово или цифру, Пример http://ll5a.vidak.icu

Лицензия

MVO

1 сезон

1

1 сезон

iTunes

1 сезон

13

1 сезон

Deluxe

pack

Рекомендуем

Repack

30

ВАЖНО

RePack

MK11

RePack

jed

RePack

fifa19

RePack

RDR2

RePack

NEED FOR SPEED™ PAYBACK

Кинопоиск HD

6 сезон

 Острые козырьки 6 сезон

Все сериалы

все сериалы на PB.wtf

RePack

FAR CRY 5
  
Magnet ссылка

Приплыли! (Юрий Ярушников) [2022, Комедия, WEB-DLRip-AVC] RUS [KION] от ExKinoRay pb.wtf

Приплыли! через торрент pb.wtf

Раздают: 3 [ 0 KB/s ]
Размер: 1.44 GB | Добавлен: 1 мес. 22 д. назад | Торрент скачан:111 раз
Смотреть онлайн Приплыли! | Скачать    Ребята, помогите собрать деньги на оплату серверов!!!

23-06-2022 16:19 Приплыли! Скачать торрент  


Приплыли!
Информация о фильме:
Название: Приплыли!
Год выхода: 2022
Жанр: комедия
Режиссер: Юрий Ярушников
В ролях: Владимир Яглыч, Роман Фомин, Маргарита Аброськина, Александр Соколовский, Игорь Золотовицкий, Мария Голицына, Василий Кортуков
Описание: Незадачливый романтик Паша мечтает сделать предложение своей девушке, разыграв на яхте сцену из «Титаника». Однако у отца Паши совсем другие планы — яхта нужна ему, чтобы провернуть одну не очень законную операцию. В итоге морская прогулка оборачивается чередой безумных событий, в которой запланированное кораблекрушение будет далеко не самой большой проблемой.



Страна: Россия
Студия: XOVP eXtraOrdinary Virtual Production
Продолжительность: 01:27:50
Перевод: Оригинал - KION



Информация о файле:
Кодек: AVC
Формат: MKV
Качество: WEB-DLRip-AVC
Видео: MPEG-4 AVC, 1024x576, 24.000 fps, 1890 kb/s
Аудио RU: AC3, 6 ch, 48 kHz, 448 kbps



General
Unique ID : 213389017367325716009288846331166868907 (0xA0893AD67949258D73EB1DFEFAE445AB)
Complete name : D:uTorrentРипы wolf1245Priplyili.2022.RUS.KION.x264.WEB-DLRip-AVC.[wolf1245.ExKinoRay].mkv
Format : Matroska
Format version : Version 4
File size : 1.44 GiB
Duration : 1 h 27 min
Overall bit rate : 2 340 kb/s
Movie name : Priplyili.2022.RUS.KION.x264.WEB-DLRip-AVC.[wolf1245.ExKinoRay]
Encoded date : UTC 2022-06-23 16:09:25
Writing application : mkvmerge v68.0.0 ('The Curtain') 64-bit
Writing library : libebml v1.4.2 + libmatroska v1.6.4
Video
ID : 1
Format : AVC
Format/Info : Advanced Video Codec
Format profile : [email protected]
Format settings : CABAC / 10 Ref Frames
Format settings, CABAC : Yes
Format settings, Reference frames : 10 frames
Codec ID : V_MPEG4/ISO/AVC
Duration : 1 h 27 min
Bit rate : 1 890 kb/s
Width : 1 024 pixels
Height : 576 pixels
Display aspect ratio : 16:9
Frame rate mode : Constant
Frame rate : 24.000 FPS
Color space : YUV
Chroma subsampling : 4:2:0
Bit depth : 8 bits
Scan type : Progressive
Bits/(Pixel*Frame) : 0.134
Stream size : 1.16 GiB (81%)
Title : -=[wolf1245.ExKinoRay]=-
Writing library : x264 core 163 r3060 5db6aa6
Encoding settings : cabac=1 / ref=10 / deblock=1:-2:-1 / analyse=0x3:0x133 / me=umh / subme=10 / psy=1 / psy_rd=0.98:0.15 / mixed_ref=1 / me_range=32 / chroma_me=1 / trellis=2 / 8x8dct=1 / cqm=0 / deadzone=22,11 / fast_pskip=1 / chroma_qp_offset=-3 / threads=10 / lookahead_threads=2 / sliced_threads=0 / nr=0 / decimate=0 / interlaced=0 / bluray_compat=0 / constrained_intra=0 / bframes=10 / b_pyramid=2 / b_adapt=2 / b_bias=2 / direct=3 / weightb=1 / open_gop=0 / weightp=2 / keyint=240 / keyint_min=24 / scenecut=40 / intra_refresh=0 / rc_lookahead=150 / rc=2pass / mbtree=0 / bitrate=1890 / ratetol=1.0 / qcomp=0.65 / qpmin=0 / qpmax=69 / qpstep=4 / cplxblur=20.0 / qblur=0.5 / vbv_maxrate=50000 / vbv_bufsize=62500 / nal_hrd=none / filler=0 / ip_ratio=1.40 / pb_ratio=1.30 / aq=3:0.90
Language : Russian
Default : Yes
Forced : No
Audio
ID : 2
Format : AC-3
Format/Info : Audio Coding 3
Commercial name : Dolby Digital
Codec ID : A_AC3
Duration : 1 h 27 min
Bit rate mode : Constant
Bit rate : 448 kb/s
Channel(s) : 6 channels
Channel layout : L R C LFE Ls Rs
Sampling rate : 48.0 kHz
Frame rate : 31.250 FPS (1536 SPF)
Compression mode : Lossy
Stream size : 281 MiB (19%)
Title : Original | KION
Language : Russian
Service kind : Complete Main
Default : Yes
Forced : No
Релиз от:
Автор релиза:
pb.wtf



Скачать Приплыли! через торрент http://i120.fastpic.org/big/2022/0623/c8/37422045b7b6d628eb3a8ccdec05a1c8.jpg Скачать, смотреть онлайн Приплыли! бесплантно в хорошем качестве Описание: Незадачливый романтик Паша мечтает сделать предложение своей девушке, разыграв на яхте сцену из «Титаника». Однако у отца Паши ... 8 10 4
Торрент: Зарегистрирован [2022-06-23 16:19] · скачан: 111 раз
Статус: √ проверено
Размер: 1.44 GB
Как cкачать? Как скачать Приплыли! через торрент | UTorrent

28-11-2019 20:33  

Отключить вcю реклaмy на сайте

    Дорогой пользователь! Огромная просьба, поблагодарите релизера, оцените раздачу и оставьте свои комментарий, если Вы скачали Приплыли! через торрент бесплатно!
    Комментировать посты могут только пользователи прошедшие не сложную регистрацию
    Показать сообщения:    

    Приплыли! через торрент
    Скачать бесплатно Приплыли!
    Приплыли! скачать торрент
    Приплыли! смотреть онлайн
    Cкачать фильм Приплыли! бесплатно
    Приплыли! скачать торрент в хорошем качестве
    Приплыли! смотреть онлайн бесплатно в хорошем качестве


    Вы не можете начинать темы
    Вы не можете отвечать на сообщения
    Вы не можете редактировать свои сообщения
    Вы не можете удалять свои сообщения
    Вы не можете голосовать в опросах
    Вы не можете прикреплять файлы к сообщениям
    Вы можете скачивать файлы