Доктор Стрэндж

Лицензия

Добыча

Дубляж

Уэнсдэй

1 сезон

Тор

Дубляж

В эфире

Дубляж

Там, где раки поют

MVO

Властелин колец

1 сезон

Deluxe

pack

Рекомендуем

30

Пиратка

ВАЖНО

ВАЖНО

Ghostwire

Пиратка

jed

RePack

nioh2

RePack

RDR2

RePack

NEED FOR SPEED™ PAYBACK

RePack

скачать торрент

Кинопоиск HD

Острые козырьки 6 сезон

6 сезон

FAR CRY 6

RePack

скачать торрент

Лицензия

скачать торрент

MVO

1

1 сезон

скачать торрент

1 сезон

скачать торрент

Лицензия

  

Соник 2 в кино / Sonic the Hedgehog 2 (Джефф Фаулер) [2022, Фантастика, боевик, комедия, приключения, семейный, UHD WEB-DL-HEVC 2160p] Дубляж [SDI Media / IYUNO SDI Group] +3xMVO

Соник 2 в кино через торрент pb.wtf

Раздают: 2 [ 0 KB/s ]
Размер: 13.73 GB | Добавлен: 5 мес. 11 д. назад | Торрент скачан:291 раз
Смотреть онлайн | Скачать   

24-06-2022 18:58 Соник 2 в кино Скачать торрент  

Соник 2 в кино
Sonic the Hedgehog 2

Год выпуска: 2022
Страна: Япония, США
Выпущено: Paramount Pictures, Sega Sammy Group, Original Film
Жанр: Фантастика, боевик, комедия, приключения, семейный
Продолжительность: 02:02:17
Перевод(ы):
#1: Дублированный | SDI Media / IYUNO SDI Group
#2: Профессиональный многоголосый закадровый | HDRezka
#3: Профессиональный многоголосый закадровый | Jasker
#4: Профессиональный многоголосый закадровый | TVShows
Субтитры: Русские (2 x Forced, 2 x full), английские

Режиссер: Джефф Фаулер

rating

В ролях: Бен Шварц, Идрис Эльба, Коллин О Шонесси, Джим Керри, Джеймс Марсден, Тика Самптер, Наташа Ротуэлл, Шемар Мур, Адам Палли, Ли Мадждуб

Описание: Поселившись в Грин Хилз, Соник стремится доказать, что у него есть все задатки настоящего героя. И геройское испытание не заставляет себя долго ждать: злодейский доктор Роботник вновь строит козни. На этот раз - с загадочным напарником Наклзом. Вместе они разыскивают бесценный изумруд, в котором заключены силы, способные уничтожать целые цивилизации. Соник объединяется с лисенком Тейлзом, чтобы отправиться в кругосветное путешествие и найти изумруд до того, как он попадет в плохие руки.

Качество: UHD WEB-DL-HEVC 2160p
Формат: MKV

Видео: 3840x2160 at 23.976 fps, MPEG-H HEVC HDR ~ 14100 kbps avg
Аудио #01: 48 kHz, AC3, 5.1, 384 Kbps | Дублированный | SDI Media / IYUNO SDI Group | RUS |
Аудио #02: 48 kHz, AC3, 5.1, 448 Kbps | Профессиональный многоголосый закадровый | HDRezka | RUS |
Аудио #03: 48 kHz, AC3, 2.0, 192 Kbps | Профессиональный многоголосый закадровый | Jasker | RUS |
Аудио #04: 48 kHz, AC3, 2.0, 192 Kbps | Профессиональный многоголосый закадровый | TVShows | RUS |
Аудио #05: 48 kHz, EAC3+Atmos, 5.1, 768 Kbps | Оригинал | ENG |
скриншот  скриншот  скриншот  скриншот  

General
Unique ID : 28416651468849726937260315978575146535 (0x1560D9166AC502C0BCDEC2D1B0186E27)
Complete name : D:Video11Sonic.The.Hedgehog.2.2022.WEB-DL.2160p.HDR.seleZen.mkv
Format : Matroska
Format version : Version 4
File size : 13.7 GiB
Duration : 2 h 2 min
Overall bit rate : 16.1 Mb/s
Movie name : Sonic The Hedgehog 2 2022 from seleZen
Encoded date : UTC 2022-06-24 14:10:05
Writing application : mkvmerge v59.0.0 ('Shining Star') 64-bit
Writing library : libebml v1.4.2 + libmatroska v1.6.4

Video
ID : 1
Format : HEVC
Format/Info : High Efficiency Video Coding
Format profile : Main [email protected]@Main
HDR format : SMPTE ST 2094 App 4, Version 1, HDR10+ Profile B compatible
Codec ID : V_MPEGH/ISO/HEVC
Duration : 2 h 2 min
Bit rate : 14.1 Mb/s
Width : 3 840 pixels
Height : 2 160 pixels
Display aspect ratio : 16:9
Frame rate mode : Constant
Frame rate : 23.976 (24000/1001) FPS
Color space : YUV
Chroma subsampling : 4:2:0 (Type 2)
Bit depth : 10 bits
Bits/(Pixel*Frame) : 0.071
Stream size : 12.0 GiB (88%)
Default : Yes
Forced : No
Color range : Limited
Color primaries : BT.2020
Transfer characteristics : PQ
Matrix coefficients : BT.2020 non-constant
Mastering display color pri: Display P3
Mastering display luminance: min: 0.0001 cd/m2, max: 1000 cd/m2

Audio #1
ID : 2
Format : AC-3
Format/Info : Audio Coding 3
Commercial name : Dolby Digital
Codec ID : A_AC3
Duration : 2 h 2 min
Bit rate mode : Constant
Bit rate : 384 kb/s
Channel(s) : 6 channels
Channel layout : L R C LFE Ls Rs
Sampling rate : 48.0 kHz
Frame rate : 31.250 FPS (1536 SPF)
Compression mode : Lossy
Stream size : 336 MiB (2%)
Title : Дубляж
Language : Russian
Service kind : Complete Main
Default : Yes
Forced : Yes

Audio #2
ID : 3
Format : AC-3
Format/Info : Audio Coding 3
Commercial name : Dolby Digital
Codec ID : A_AC3
Duration : 2 h 2 min
Bit rate mode : Constant
Bit rate : 448 kb/s
Channel(s) : 6 channels
Channel layout : L R C LFE Ls Rs
Sampling rate : 48.0 kHz
Frame rate : 31.250 FPS (1536 SPF)
Compression mode : Lossy
Stream size : 392 MiB (3%)
Title : MVO_HDRezka Studio
Language : Russian
Service kind : Complete Main
Default : No
Forced : No

Audio #3
ID : 4
Format : AC-3
Format/Info : Audio Coding 3
Commercial name : Dolby Digital
Codec ID : A_AC3
Duration : 2 h 2 min
Bit rate mode : Constant
Bit rate : 192 kb/s
Channel(s) : 2 channels
Channel layout : L R
Sampling rate : 48.0 kHz
Frame rate : 31.250 FPS (1536 SPF)
Compression mode : Lossy
Stream size : 168 MiB (1%)
Title : MVO_Jasker
Language : Russian
Service kind : Complete Main
Default : No
Forced : No

Audio #4
ID : 5
Format : AC-3
Format/Info : Audio Coding 3
Commercial name : Dolby Digital
Codec ID : A_AC3
Duration : 2 h 2 min
Bit rate mode : Constant
Bit rate : 192 kb/s
Channel(s) : 2 channels
Channel layout : L R
Sampling rate : 48.0 kHz
Frame rate : 31.250 FPS (1536 SPF)
Compression mode : Lossy
Stream size : 168 MiB (1%)
Title : MVO_TVShows
Language : Russian
Service kind : Complete Main
Default : No
Forced : No

Audio #5
ID : 6
Format : E-AC-3 JOC
Format/Info : Enhanced AC-3 with Joint Object Coding
Commercial name : Dolby Digital Plus with Dolby Atmos
Codec ID : A_EAC3
Duration : 2 h 2 min
Bit rate mode : Constant
Bit rate : 768 kb/s
Channel(s) : 6 channels
Channel layout : L R C LFE Ls Rs
Sampling rate : 48.0 kHz
Frame rate : 31.250 FPS (1536 SPF)
Compression mode : Lossy
Stream size : 672 MiB (5%)
Title : Original
Language : English
Service kind : Complete Main
Default : No
Forced : No
Complexity index : 16
Number of dynamic objects : 15
Bed channel count : 1 channel
Bed channel configuration : LFE

Text #1
ID : 7
Format : UTF-8
Codec ID : S_TEXT/UTF8
Codec ID/Info : UTF-8 Plain Text
Duration : 1 h 51 min
Bit rate : 0 b/s
Count of elements : 23
Stream size : 736 Bytes (0%)
Title : Forced [Off.]
Language : Russian
Default : Yes
Forced : Yes

Text #2
ID : 8
Format : UTF-8
Codec ID : S_TEXT/UTF8
Codec ID/Info : UTF-8 Plain Text
Duration : 2 h 1 min
Bit rate : 77 b/s
Count of elements : 1375
Stream size : 69.0 KiB (0%)
Title : Full [Off.]
Language : Russian
Default : No
Forced : No

Text #3
ID : 9
Format : UTF-8
Codec ID : S_TEXT/UTF8
Codec ID/Info : UTF-8 Plain Text
Duration : 1 h 51 min
Bit rate : 1 b/s
Count of elements : 33
Stream size : 1.34 KiB (0%)
Title : Forced [HDRezka]
Language : Russian
Default : No
Forced : No

Text #4
ID : 10
Format : UTF-8
Codec ID : S_TEXT/UTF8
Codec ID/Info : UTF-8 Plain Text
Duration : 1 h 53 min
Bit rate : 91 b/s
Count of elements : 1714
Stream size : 75.5 KiB (0%)
Title : Full [FOCS]
Language : Russian
Default : No
Forced : No

Text #5
ID : 11
Format : UTF-8
Codec ID : S_TEXT/UTF8
Codec ID/Info : UTF-8 Plain Text
Duration : 42 min 25 s
Bit rate : 0 b/s
Count of elements : 7
Stream size : 191 Bytes (0%)
Title : Forced
Language : English
Default : No
Forced : No

Text #6
ID : 12
Format : UTF-8
Codec ID : S_TEXT/UTF8
Codec ID/Info : UTF-8 Plain Text
Duration : 1 h 52 min
Bit rate : 63 b/s
Count of elements : 1650
Stream size : 52.4 KiB (0%)
Title : Full
Language : English
Default : No
Forced : No

Text #7
ID : 13
Format : UTF-8
Codec ID : S_TEXT/UTF8
Codec ID/Info : UTF-8 Plain Text
Duration : 1 h 52 min
Bit rate : 71 b/s
Count of elements : 1983
Stream size : 59.1 KiB (0%)
Title : SDH
Language : English
Default : No
Forced : No




Скачать Соник 2 в кино через торрент https://i120.fastpic.org/big/2022/0624/35/b850a7827a368057a3ab278b16bc2e35.jpg Скачать, смотреть онлайн Соник 2 в кино бесплантно в хорошем качестве Описание: Поселившись в Грин Хилз, Соник стремится доказать, что у него есть все задатки настоящего героя. И геройское испытание не ... 9.9 10 11
Торрент: Зарегистрирован [2022-06-24 18:58] · скачан: 291 раз
Статус: √ проверено
Размер: 13.73 GB
Как cкачать? Как скачать Соник 2 в кино через торрент | UTorrent

% Раздел Тема Автор DL S | L
Фильмы [HD 720p, 1080p] (Хороший звук DUB, MVO) [ 11.09 GB ] Соник 2 в кино / Sonic the Hedgehog 2 | DUB | 1080p bober100 Скачать
2 | 0
Фильмы 2022 [DVDrip, WEB-DLRip, HDrip] (DUB, MVO) [ 3.69 GB ] Соник 2 в кино / Sonic the Hedgehog 2 | DUB | HDRip-AVC bober100 Скачать
4 | 0
Фильмы [HD 720p, 1080p] (Хороший звук DUB, MVO) [ 5.44 GB ] Соник 2 в кино / Sonic the Hedgehog 2 | DUB | 720p bober100 Скачать
1 | 0

28-11-2019 20:33  


Отключить вcю реклaмy на сайте, в т.ч. и в плеере онлайн просмотра!

    Дорогой пользователь! Огромная просьба, поблагодарите релизера, оцените раздачу и оставьте свои комментарий, если Вы скачали Соник 2 в кино через торрент бесплатно!!
    Комментировать посты могут только пользователи прошедшие не сложную регистрацию
    Показать сообщения:    


    Соник 2 в кино через торрент
    Скачать бесплатно Соник 2 в кино
    Соник 2 в кино скачать торрент
    Соник 2 в кино смотреть онлайн
    Cкачать фильм Соник 2 в кино бесплатно
    Соник 2 в кино скачать торрент в хорошем качестве
    Соник 2 в кино смотреть онлайн бесплатно в хорошем качестве
    Вы не можете начинать темы
    Вы не можете отвечать на сообщения
    Вы не можете редактировать свои сообщения
    Вы не можете удалять свои сообщения
    Вы не можете голосовать в опросах
    Вы не можете прикреплять файлы к сообщениям
    Вы можете скачивать файлы
    Соник 2 в кино / Sonic the Hedgehog 2 [2022, Фантастика, боевик, комедия, приключения, семейный, UHD WEB-DL-HEVC 2160p] Дубляж [SDI Media / IYUNO SDI Group] +3xMVO смотреть онлайн, скачать торрент picoco.icu