Доктор Стрэндж

Лицензия

Добыча

MVO

Дом дракона

1 сезон

Тор

Лицензия

Мэверик

Лицензия

Там, где раки поют

MVO

Властелин колец

1 сезон

Ultimate

pack

Рекомендуем

30

Repack

ВАЖНО

ВАЖНО

Ghostwire

RePack

jed

RePack

nioh2

RePack

RDR2

RePack

NEED FOR SPEED™ PAYBACK

RePack

скачать торрент

Кинопоиск HD

Острые козырьки 6 сезон

6 сезон

FAR CRY 6

RePack

скачать торрент

Лицензия

скачать торрент

MVO

1

1 сезон

скачать торрент

1 сезон

скачать торрент

Лицензия

  

Человек из Торонто / Людина з Торонто / The Man from Toronto (Патрик Хьюз) [2022, Боевик, триллер, комедия, WEB-DL 1080p] DUB [UKR / Netflix]

Человек из Торонто через торрент pb.wtf

Раздают: 1 [ 0 KB/s ]
Размер: 2.98 GB | Добавлен: 3 мес. 11 д. назад | Торрент скачан:112 раз
| Скачать   

25-06-2022 05:08 Человек из Торонто Скачать торрент  

Человек из Торонто
Людина з Торонто
The Man from Toronto

Год выпуска: 2022
Страна: США
Студия: Bron Studios, Columbia Pictures Corporation, Escape Artists, Hartbeat Productions, Sony Pictures Entertainment (SPE)
Жанр: Боевик, триллер, комедия
Продолжительность: 01:52:03
Перевод: Профессиональный дублированный | Netflix (Украинский)
Субтитры: Украинские (Forced, full), английские (SDH)

Режиссер: Патрик Хьюз

rating

В ролях: Эллен Баркин, Кейли Куоко, Вуди Харрельсон, Кевин Харт, Лила Лорен, Жасмин Мэтьюз, Кейт Драммонд, Роб Арчер, Пирсон Фод, Томохиса Ямасита

Описание: Из-за ошибки Airbnb обычный житель Нью-Йорка попадает в одну квартиру с киллером по прозвищу Мужчина из Торонто.

Качество: WEB-DL 1080p
Формат: MKV

Видео: AVC, 1920x1080 (16:9), 24.000 fps, 2 313 kb/s
Аудио 1: E-AC3, 48.0 kHz, 6 ch, 640 kb/s | UKR [DUB, Netflix]
Аудио 2: E-AC3 JOC, 48.0 kHz, 6 ch, 768 kb/s | ENG [Оригинал]

Format : Matroska
Format version : Version 4
File size : 2.98 GiB
Duration : 1 h 52 min
Overall bit rate mode : Variable
Overall bit rate : 3 804 kb/s
Movie name : Людина з Торонто / The Man from Toronto (2022)
Encoded date : UTC 2022-06-24 09:06:09
Writing application : mkvmerge v67.0.0 ('Under Stars') 64-bit
Writing library : libebml v1.4.2 + libmatroska v1.6.4
Attachments : poster.jpg

Video
ID : 1
Format : AVC
Format/Info : Advanced Video Codec
Format profile : [email protected]
Format settings : CABAC / 3 Ref Frames
Format settings, CABAC : Yes
Format settings, Reference : 3 frames
Codec ID : V_MPEG4/ISO/AVC
Duration : 1 h 52 min
Bit rate mode : Variable
Bit rate : 2 313 kb/s
Maximum bit rate : 4 740 kb/s
Width : 1 920 pixels
Height : 1 080 pixels
Display aspect ratio : 16:9
Frame rate mode : Constant
Frame rate : 23.976 (24000/1001) FPS
Color space : YUV
Chroma subsampling : 4:2:0
Bit depth : 8 bits
Scan type : Progressive
Bits/(Pixel*Frame) : 0.047
Stream size : 1.87 GiB (63%)
Writing library : x264 core 148 r2727 7d026e8
Encoding settings : cabac=1 / ref=3 / deblock=1:0:0 / analyse=0x1:0x111 / me=umh / subme=10 / psy=1 / psy_rd=1.00:0.00 / mixed_ref=1 / me_range=24 / chroma_me=1 / trellis=2 / 8x8dct=0 / cqm=0 / deadzone=21,11 / fast_pskip=1 / chroma_qp_offset=-2 / threads=6 / lookahead_threads=1 / sliced_threads=0 / nr=0 / decimate=1 / interlaced=0 / bluray_compat=0 / stitchable=1 / constrained_intra=0 / bframes=2 / b_pyramid=0 / b_adapt=2 / b_bias=0 / direct=3 / weightb=1 / open_gop=0 / weightp=2 / keyint=250 / keyint_min=23 / scenecut=0 / intra_refresh=0 / rc_lookahead=48 / rc=2pass / mbtree=1 / bitrate=2313 / ratetol=1.0 / qcomp=0.50 / qpmin=6 / qpmax=51 / qpstep=4 / cplxblur=20.0 / qblur=0.5 / vbv_maxrate=4740 / vbv_bufsize=6320 / nal_hrd=vbr / filler=0 / ip_ratio=1.40 / aq=1:1.00
Language : English
Default : Yes
Forced : No

Audio #1
ID : 2
Format : E-AC-3
Format/Info : Enhanced AC-3
Commercial name : Dolby Digital Plus
Codec ID : A_EAC3
Duration : 1 h 52 min
Bit rate mode : Constant
Bit rate : 640 kb/s
Channel(s) : 6 channels
Channel layout : L R C LFE Ls Rs
Sampling rate : 48.0 kHz
Frame rate : 31.250 FPS (1536 SPF)
Compression mode : Lossy
Stream size : 513 MiB (17%)
Title : Dub
Language : Ukrainian
Service kind : Complete Main
Default : Yes
Forced : No

Audio #2
ID : 3
Format : E-AC-3 JOC
Format/Info : Enhanced AC-3 with Joint Object Coding
Commercial name : Dolby Digital Plus with Dolby Atmos
Codec ID : A_EAC3
Duration : 1 h 52 min
Bit rate mode : Constant
Bit rate : 768 kb/s
Channel(s) : 6 channels
Channel layout : L R C LFE Ls Rs
Sampling rate : 48.0 kHz
Frame rate : 31.250 FPS (1536 SPF)
Compression mode : Lossy
Stream size : 616 MiB (20%)
Title : Original
Language : English
Service kind : Complete Main
Default : No
Forced : No
Complexity index : 16
Number of dynamic objects : 15
Bed channel count : 1 channel
Bed channel configuration : LFE

Text #1
ID : 4
Format : UTF-8
Codec ID : S_TEXT/UTF8
Codec ID/Info : UTF-8 Plain Text
Duration : 1 h 46 min
Bit rate : 1 b/s
Count of elements : 44
Stream size : 1.49 KiB (0%)
Language : Ukrainian
Default : Yes
Forced : Yes

Text #2
ID : 5
Format : UTF-8
Codec ID : S_TEXT/UTF8
Codec ID/Info : UTF-8 Plain Text
Duration : 1 h 48 min
Bit rate : 111 b/s
Count of elements : 1878
Stream size : 88.2 KiB (0%)
Language : Ukrainian
Default : No
Forced : No

Text #3
ID : 6
Format : UTF-8
Codec ID : S_TEXT/UTF8
Codec ID/Info : UTF-8 Plain Text
Duration : 1 h 44 min
Bit rate : 90 b/s
Count of elements : 2283
Stream size : 69.5 KiB (0%)
Language : English
Default : No
Forced : No




Скачать Человек из Торонто через торрент https://i120.fastpic.org/big/2022/0624/77/44b0abb13486c5b30825c837c7001b77.jpg Скачать, смотреть онлайн Человек из Торонто бесплантно в хорошем качестве Описание: Из-за ошибки Airbnb обычный житель Нью-Йорка попадает в одну квартиру с киллером по прозвищу Мужчина из ... 8.7 10 7
Торрент: Зарегистрирован [2022-06-25 05:08] · скачан: 112 раз
Статус: √ проверено
Размер: 2.98 GB
Как cкачать? Как скачать Человек из Торонто через торрент | UTorrent

% Раздел Тема Автор DL S | L
Фильмы (WEB-DL 720p, 1080p) [ 13.01 GB ] Человек из Торонто / The Man from Toronto | Jaskier | 1080p bober100 Скачать
14 | 0
Фильмы 2022 [DVDrip, WEB-DLRip, HDrip] (DUB, MVO) [ 1.46 GB ] Человек из Торонто / The Man from Toronto | Jaskier | DLRip bober100 Скачать
9 | 1
Фильмы 2022 [DVDrip, WEB-DLRip, HDrip] (DUB, MVO) [ 1.98 GB ] Человек из Торонто / The Man from Toronto | Jaskier | DLRip-AVC bober100 Скачать
9 | 0

28-11-2019 20:33  


Отключить вcю реклaмy на сайте, в т.ч. и в плеере онлайн просмотра!

    Дорогой пользователь! Огромная просьба, поблагодарите релизера, оцените раздачу и оставьте свои комментарий, если Вы скачали Человек из Торонто через торрент бесплатно!!
    Комментировать посты могут только пользователи прошедшие не сложную регистрацию
    Показать сообщения:    


    Человек из Торонто через торрент
    Скачать бесплатно Человек из Торонто
    Человек из Торонто скачать торрент
    Человек из Торонто смотреть онлайн
    Cкачать фильм Человек из Торонто бесплатно
    Человек из Торонто скачать торрент в хорошем качестве
    Человек из Торонто смотреть онлайн бесплатно в хорошем качестве
    Вы не можете начинать темы
    Вы не можете отвечать на сообщения
    Вы не можете редактировать свои сообщения
    Вы не можете удалять свои сообщения
    Вы не можете голосовать в опросах
    Вы не можете прикреплять файлы к сообщениям
    Вы можете скачивать файлы