Всегда рабочее зеркало без VPN и Proxy просто перед .vidak.icu напиши любое слово или цифру, Пример http://hx5x.vidak.icu

MVO

MVO

1 сезон

1

1 сезон

iTunes

1 сезон

13

1 сезон

Deluxe

pack

Рекомендуем

Repack

30

ВАЖНО

RePack

MK11

RePack

jed

RePack

fifa19

RePack

RDR2

RePack

NEED FOR SPEED™ PAYBACK

Кинопоиск HD

6 сезон

 Острые козырьки 6 сезон

Все сериалы

все сериалы на PB.wtf

RePack

FAR CRY 5
  
Magnet ссылка

Анатомия убийств / Исчезновение / Vanishing (Дени Деркур) [2021, Детектив, триллер, криминал, WEB-DLRip-AVC] DUB [iTunes] от ExKinoRay pb.wtf

Анатомия убийств через торрент pb.wtf

Раздают: 2 [ 0 KB/s ]
Размер: 1.33 GB | Добавлен: 1 мес. 15 д. назад | Торрент скачан:44 раза
Смотреть онлайн Анатомия убийств | Скачать    Ребята, помогите собрать деньги на оплату серверов!!!

25-06-2022 09:14 Анатомия убийств Скачать торрент  


Анатомия убийств / Исчезновение / Vanishing
Информация о фильме:
Название: Анатомия убийств / Исчезновение
Оригинальное название: Vanishing
Год выхода: 2021
Жанр: детектив, триллер, криминал
Режиссер: Дени Деркур
В ролях: Ю Ён-сок, Ольга Куриленко, Е Джи-вон, Чхве Му-сон, Ли Сын-джун, Сон Джи-ру, Пак Со-и, Анупам Трипати

Описание: Патологоанатом, которая изобрела революционный метод восстановления останков, приезжает в Южную Корею на научную конференцию. Там она получает запрос от местной полиции обследовать найденное в реке тело.



Страна: Франция
Студия: The French Connection, Keystone Films
Продолжительность: 01:23:41
Перевод: Дублированный - iTunes



Информация о файле:
Кодек: AVC
Формат: MKV
Качество: WEB-DLRip-AVC
Видео: MPEG-4 AVC, 1024x428, 25.000 fps, 1890 kb/s
Аудио RU: AC3, 6 ch, 48 kHz, 384 kbps
Субтитры: French



General
Unique ID : 5586302412247797587039575552278690160 (0x433E1F93E8596DED8CCCE8F70C87970)
Complete name : D:uTorrentРипы wolf1245Vanishing.2021.DUB.iTunes.x264.WEB-DLRip-AVC.[wolf1245.ExKinoRay].mkv
Format : Matroska
Format version : Version 4
File size : 1.33 GiB
Duration : 1 h 23 min
Overall bit rate : 2 275 kb/s
Movie name : Vanishing.2021.DUB.iTunes.x264.WEB-DLRip-AVC.[wolf1245.ExKinoRay]
Encoded date : UTC 2022-06-25 08:53:28
Writing application : mkvmerge v68.0.0 ('The Curtain') 64-bit
Writing library : libebml v1.4.2 + libmatroska v1.6.4
Video
ID : 1
Format : AVC
Format/Info : Advanced Video Codec
Format profile : [email protected]
Format settings : CABAC / 10 Ref Frames
Format settings, CABAC : Yes
Format settings, Reference frames : 10 frames
Codec ID : V_MPEG4/ISO/AVC
Duration : 1 h 23 min
Bit rate : 1 890 kb/s
Width : 1 024 pixels
Height : 428 pixels
Display aspect ratio : 2.40:1
Frame rate mode : Constant
Frame rate : 25.000 FPS
Color space : YUV
Chroma subsampling : 4:2:0
Bit depth : 8 bits
Scan type : Progressive
Bits/(Pixel*Frame) : 0.172
Stream size : 1.10 GiB (83%)
Title : -=[wolf1245.ExKinoRay]=-
Writing library : x264 core 163 r3060 5db6aa6
Encoding settings : cabac=1 / ref=10 / deblock=1:-2:-1 / analyse=0x3:0x133 / me=umh / subme=10 / psy=1 / psy_rd=1.00:0.15 / mixed_ref=1 / me_range=32 / chroma_me=1 / trellis=2 / 8x8dct=1 / cqm=0 / deadzone=22,11 / fast_pskip=1 / chroma_qp_offset=-3 / threads=10 / lookahead_threads=2 / sliced_threads=0 / nr=0 / decimate=0 / interlaced=0 / bluray_compat=0 / constrained_intra=0 / bframes=10 / b_pyramid=2 / b_adapt=2 / b_bias=0 / direct=3 / weightb=1 / open_gop=0 / weightp=2 / keyint=250 / keyint_min=25 / scenecut=40 / intra_refresh=0 / rc_lookahead=100 / rc=2pass / mbtree=0 / bitrate=1890 / ratetol=1.0 / qcomp=0.60 / qpmin=0 / qpmax=69 / qpstep=4 / cplxblur=20.0 / qblur=0.5 / vbv_maxrate=50000 / vbv_bufsize=62500 / nal_hrd=none / filler=0 / ip_ratio=1.40 / pb_ratio=1.30 / aq=3:0.90
Language : French
Default : Yes
Forced : No
Color range : Limited
Color primaries : BT.709
Transfer characteristics : BT.709
Matrix coefficients : BT.709
Audio
ID : 2
Format : AC-3
Format/Info : Audio Coding 3
Commercial name : Dolby Digital
Codec ID : A_AC3
Duration : 1 h 23 min
Bit rate mode : Constant
Bit rate : 384 kb/s
Channel(s) : 6 channels
Channel layout : L R C LFE Ls Rs
Sampling rate : 48.0 kHz
Frame rate : 31.250 FPS (1536 SPF)
Compression mode : Lossy
Stream size : 230 MiB (17%)
Title : DUB | iTunes | RUS
Language : Russian
Service kind : Complete Main
Default : Yes
Forced : Yes
Text #1
ID : 3
Format : UTF-8
Codec ID : S_TEXT/UTF8
Codec ID/Info : UTF-8 Plain Text
Duration : 1 h 18 min
Bit rate : 24 b/s
Count of elements : 567
Stream size : 14.2 KiB (0%)
Title : French
Language : French
Default : No
Forced : No
Text #2
ID : 4
Format : UTF-8
Codec ID : S_TEXT/UTF8
Codec ID/Info : UTF-8 Plain Text
Duration : 1 h 23 min
Bit rate : 41 b/s
Count of elements : 1005
Stream size : 25.3 KiB (0%)
Title : French (SDH)
Language : French
Default : No
Forced : No
Релиз от:
Автор релиза:
pb.wtf



Скачать Анатомия убийств через торрент http://i120.fastpic.org/big/2022/0625/9c/28d46bbca19b4f968e76bdba0c1b9c9c.jpg Скачать, смотреть онлайн Анатомия убийств бесплантно в хорошем качестве Описание: Патологоанатом, которая изобрела революционный метод восстановления останков, приезжает в Южную Корею на научную конференцию. ... 10 10 2
Торрент: Зарегистрирован [2022-06-25 09:14] · скачан: 44 раз
Статус: √ проверено
Размер: 1.33 GB
Как cкачать? Как скачать Анатомия убийств через торрент | UTorrent

28-11-2019 20:33  

Отключить вcю реклaмy на сайте

    Дорогой пользователь! Огромная просьба, поблагодарите релизера, оцените раздачу и оставьте свои комментарий, если Вы скачали Анатомия убийств через торрент бесплатно!
    Комментировать посты могут только пользователи прошедшие не сложную регистрацию
    Показать сообщения:    

    Анатомия убийств через торрент
    Скачать бесплатно Анатомия убийств
    Анатомия убийств скачать торрент
    Анатомия убийств смотреть онлайн
    Cкачать фильм Анатомия убийств бесплатно
    Анатомия убийств скачать торрент в хорошем качестве
    Анатомия убийств смотреть онлайн бесплатно в хорошем качестве


    Вы не можете начинать темы
    Вы не можете отвечать на сообщения
    Вы не можете редактировать свои сообщения
    Вы не можете удалять свои сообщения
    Вы не можете голосовать в опросах
    Вы не можете прикреплять файлы к сообщениям
    Вы можете скачивать файлы