Всегда рабочее зеркало без VPN и Proxy просто перед .vidak.icu напиши любое слово или цифру, Пример http://t6kx.vidak.icu

Лицензия

MVO

1 сезон

1

1 сезон

iTunes

1 сезон

13

1 сезон

Deluxe

pack

Рекомендуем

Repack

30

ВАЖНО

RePack

MK11

RePack

jed

RePack

fifa19

RePack

RDR2

RePack

NEED FOR SPEED™ PAYBACK

Кинопоиск HD

6 сезон

 Острые козырьки 6 сезон

Все сериалы

все сериалы на PB.wtf

RePack

FAR CRY 5
  
Magnet ссылка

Медведь / The Bear / Сезон 1 / Серии 1-8 из 8 (Кристофер Сторер) [2022, комедия, WEB-DL 1080p] [MVO] (HDRezka Studio) + [Ukr MVO] (DniproFilm) pb.wtf

Медведь через торрент pb.wtf

Раздают: 2 [ 0.6 KB/s ] Качают: 1 [ 0 KB/s ]
Размер: 11.15 GB | Добавлен: 1 мес. 16 д. назад | Торрент скачан:113 раз
Смотреть онлайн Медведь | Скачать    Ребята, помогите собрать деньги на оплату серверов!!!

25-06-2022 10:01 Медведь Скачать торрент  

Медведь / The Bear
✦ Информация о сериале

✦ Год выпуска: 2022
✦ Жанр: Комедия
✦ Страна: США
✦ Продолжительность: 1 x ~ 00:29:00
✦ Перевод #1: Профессиональный (многоголосый закадровый) - HDRezka Studio
✦ Перевод #2: Профессиональный (многоголосый закадровый) - Украинский
✦ Субтитры: английские (full), русские (forced), украинские (forced)

✦ Режиссер: Кристофер Сторер

✦ В ролях: Эбон Мосс-Бакрак, Крис Витаск, Джереми Аллен Уайт, Эбби Эллиотт, Айо Эдебири, Лиза Колон-Зайас, Лайонел Бойс, Эдвин Ли Гибсон, Ричард Эстерас

✦ Описание: Молодой шеф-повар из мира высокой кухни возвращается в Чикаго, чтобы управлять семейным магазином сэндвичей.

rating скриншот  

✦ Качество: WEB-DL 1080p
✦ Формат: MKV
✦ Видео кодек: x.264
✦ Аудио кодек: AC3, E-AC3
✦ Видео: AVC, 1920x1080, 5 555 Kbps, 23,976 fps
✦ Аудио #1 Rus: 48 kHz, AC3, 6 ch, 448 kbps | HDRezka Studio *18+ озвучка без цензуры !
✦ Аудио #2 Ukr: 48 kHz, AC3, 6 ch, 384 kbps | DniproFilm *18+ озвучка без цензуры !
✦ Аудио #3 Eng: 48 kHz, E-AC3, 6 ch, 256 kbps|Original|
скриншот  скриншот  скриншот  
General
Unique ID : 214712177140315389825519470988247871270 (0xA1880FA6BBF045268B2852988306AF26)
Complete name : The Bear.S01.1080p.xz\The Bear.S01E01.WEB-DL1080p.[HDRezka Studio], [Ukr].xz.mkv
Format : Matroska
Format version : Version 4
File size : 1.32 GiB
Duration : 27 min 48 s
Overall bit rate : 6 778 kb/s
Movie name : The Bear.S01E01.WEB-DL1080p.[HDRezka Studio], [Ukr].xz
Encoded date : UTC 2022-06-25 09:56:36
Writing application : mkvmerge v6.1.0 ('Old Devil') built on Mar 2 2013 14:32:37
Writing library : libebml v1.3.0 + libmatroska v1.4.0

Video
ID : 1
Format : AVC
Format/Info : Advanced Video Codec
Format profile : [email protected]
Format settings : CABAC / 4 Ref Frames
Format settings, CABAC : Yes
Format settings, Reference : 4 frames
Codec ID : V_MPEG4/ISO/AVC
Duration : 27 min 48 s
Bit rate : 5 555 kb/s
Width : 1 920 pixels
Height : 1 080 pixels
Display aspect ratio : 16:9
Frame rate mode : Constant
Frame rate : 23.976 (24000/1001) FPS
Color space : YUV
Chroma subsampling : 4:2:0
Bit depth : 8 bits
Scan type : Progressive
Bits/(Pixel*Frame) : 0.112
Stream size : 1.08 GiB (82%)
Title : The Bear.S01E01.WEB-DL1080p.[HDRezka Studio], [Ukr].xz
Default : Yes
Forced : No
Duration_Source : General_Duration

Audio #1
ID : 2
Format : AC-3
Format/Info : Audio Coding 3
Commercial name : Dolby Digital
Codec ID : A_AC3
Duration : 27 min 48 s
Bit rate mode : Constant
Bit rate : 448 kb/s
Channel(s) : 6 channels
Channel layout : L R C LFE Ls Rs
Sampling rate : 48.0 kHz
Frame rate : 31.250 FPS (1536 SPF)
Compression mode : Lossy
Stream size : 89.1 MiB (7%)
Title : HDR 18+
Language : Russian
Service kind : Complete Main
Default : No
Forced : No
Duration_Source : General_Duration

Audio #2
ID : 3
Format : AC-3
Format/Info : Audio Coding 3
Commercial name : Dolby Digital
Codec ID : A_AC3
Duration : 27 min 48 s
Bit rate mode : Constant
Bit rate : 384 kb/s
Channel(s) : 6 channels
Channel layout : L R C LFE Ls Rs
Sampling rate : 48.0 kHz
Frame rate : 31.250 FPS (1536 SPF)
Compression mode : Lossy
Stream size : 76.4 MiB (6%)
Title : DniproFilm 18+
Language : Ukrainian
Service kind : Complete Main
Default : No
Forced : No
Duration_Source : General_Duration

Audio #3
ID : 4
Format : E-AC-3
Format/Info : Enhanced AC-3
Commercial name : Dolby Digital Plus
Codec ID : A_EAC3
Duration : 27 min 48 s
Bit rate mode : Constant
Bit rate : 256 kb/s
Channel(s) : 6 channels
Channel layout : L R C LFE Ls Rs
Sampling rate : 48.0 kHz
Frame rate : 31.250 FPS (1536 SPF)
Compression mode : Lossy
Delay relative to video : 6 ms
Stream size : 50.9 MiB (4%)
Language : English
Service kind : Complete Main
Default : No
Forced : No
Duration_Source : General_Duration

Text #1
ID : 5
Format : UTF-8
Codec ID : S_TEXT/UTF8
Codec ID/Info : UTF-8 Plain Text
Title : English [SDH]
Language : English
Default : No
Forced : No

Text #2
ID : 6
Format : UTF-8
Codec ID : S_TEXT/UTF8
Codec ID/Info : UTF-8 Plain Text
Title : forced
Language : Russian
Default : No
Forced : No

Text #3
ID : 7
Format : UTF-8
Codec ID : S_TEXT/UTF8
Codec ID/Info : UTF-8 Plain Text
Title : forced
Language : Ukrainian
Default : No
Forced : No

Внимание! Раздача ведётся путём добавления новых серий; при каждом добавлении создаётся новый торрент. Чтобы начать докачку новой серии, пользователям необходимо сделать следующее:
(1) остановить скачивание,
(2) удалить старый торрент у себя из клиента (старые серии удалять не надо),
(3) скачать новый торрент и запустить его у себя в клиенте вместо старого, при этом указать клиенту путь в старую папку куда и должно происходить скачивание новых серий.

Ваш клиент при этом должен произвести хеширование (проверку) старой папки (если не производит сам - помогите ему сделать это), и будет докачивать только те серии которых у вас ещё нет. Старые серии при этом не удаляются, а продолжают раздаваться!

Eсли вы уже удалили старые серии, то предотвратить повторную закачку старых серий можно, отжав галочку в соответствующих местах при запуске нового торрента. По возможности, желательно не удалять старые серии как можно дольше чтобы релизёр не столько продолжал раздавать старые серии, а смог сконцентрироваться на новых.
pb.wtf



Скачать Медведь через торрент https://i120.fastpic.org/big/2022/0625/57/1ae18e20fe2cb344702dbb1a9b590a57.jpg Скачать, смотреть онлайн Медведь бесплантно в хорошем качестве Описание: Молодой шеф-повар из мира высокой кухни возвращается в Чикаго, чтобы управлять семейным магазином сэндвичей. ✦ ... 7.4 10 7
Торрент: Зарегистрирован [2022-06-28 06:39] · скачан: 113 раз
Статус: √ проверено
Размер: 11.15 GB
Как cкачать? Как скачать Медведь через торрент | UTorrent

28-11-2019 20:33  

Отключить вcю реклaмy на сайте

29-06-2022 17:50 Медведь Скачать торрент  

это филип из Бесзтыжих ?pb.wtf



    Дорогой пользователь! Огромная просьба, поблагодарите релизера, оцените раздачу и оставьте свои комментарий, если Вы скачали Медведь через торрент бесплатно!
    Комментировать посты могут только пользователи прошедшие не сложную регистрацию
    Показать сообщения:    

    Медведь через торрент
    Скачать бесплатно Медведь
    Медведь скачать торрент
    Медведь смотреть онлайн
    Cкачать фильм Медведь бесплатно
    Медведь скачать торрент в хорошем качестве
    Медведь смотреть онлайн бесплатно в хорошем качестве


    Вы не можете начинать темы
    Вы не можете отвечать на сообщения
    Вы не можете редактировать свои сообщения
    Вы не можете удалять свои сообщения
    Вы не можете голосовать в опросах
    Вы не можете прикреплять файлы к сообщениям
    Вы можете скачивать файлы