Всегда рабочее зеркало без VPN и Proxy просто перед .vidak.icu напиши любое слово или цифру, Пример http://nplj.vidak.icu

Лицензия

MVO

1 сезон

1

1 сезон

iTunes

1 сезон

13

1 сезон

Deluxe

pack

Рекомендуем

Repack

30

ВАЖНО

RePack

MK11

RePack

jed

RePack

fifa19

RePack

RDR2

RePack

NEED FOR SPEED™ PAYBACK

Кинопоиск HD

6 сезон

 Острые козырьки 6 сезон

Все сериалы

все сериалы на PB.wtf

RePack

FAR CRY 5
  
Magnet ссылка

Доктор Стрэндж: В мультивселенной безумия / Doctor Strange in the Multiverse of Madness (Сэм Рэйми) [2022, фантастика, фэнтези, боевик, приключения, ужасы, WEB-DL 1080p] [IMAX Edition] [Ukr MVO] (студия Цікава ідея) pb.wtf

Доктор Стрэндж: В мультивселенной безумия через торрент pb.wtf

Раздают: 1 [ 0 KB/s ]
Размер: 7.75 GB | Добавлен: 1 мес. 20 д. назад | Торрент скачан:65 раз
Смотреть онлайн Доктор Стрэндж: В мультивселенной безумия | Скачать    Ребята, помогите собрать деньги на оплату серверов!!!

25-06-2022 10:53 Доктор Стрэндж: В мультивселенной безумия Скачать торрент  

Доктор Стрэндж: В мультивселенной безумия / Doctor Strange in the Multiverse of Madness
Год выпуска: 2022
Страна: США
Жанр: фантастика, фэнтези, боевик, приключения, ужасы
Продолжительность: 02:06:31
Перевод: Украинский (профессиональный, многоголосный) - студия *Цікава ідея*
Субтитры: Английские

Режиссер: Сэм Рэйми

В ролях: Бенедикт Камбербэтч, Элизабет Олсен, Сочил Гомес, Бенедикт Вонг, Рэйчел МакАдамс, Чиветель Эджиофор, Патрик Стюарт, Джон Красински, Хейли Этвелл, Энсон Маунт
Описание: Доктор Стрэндж объединяется с таинственной девочкой-подростком из своих снов, которая может путешествовать по мультивселенным, чтобы противостоять многочисленным угрозам, в том числе версиям самого себя из других вселенных, которые угрожают уничтожить миллионы людей по всей мультивселенной. Они обращаются за помощью к Алой Ведьме Ванде, Вонгу и другим.
rating

Качество: WEB-DL 1080p [IMAX Edition]
Формат: MKV
Видео: AVC, 1920 x 1080, 23.976 fps, ~7488 kbps avg
Аудио #1: 48 kHz, AC3, 6 ch, ~512 kbps - Ukr
Аудио #2: 48 kHz, E-AC3, 6 ch, ~768 kbps - Eng
скриншот  скриншот  скриншот  
General
Unique ID : 97862979035680826613221756033000488668 (0x499FB963ACE6925DFD9789A6287F3EDC)
Complete name : Doctor Strange in the Multiverse of Madness (2022) [IMAX Edition] WEB-DL 1080p [UKR_ENG] [Hurtom].mkv
Format : Matroska
Format version : Version 4
File size : 7.75 GiB
Duration : 2 h 6 min
Overall bit rate mode : Variable
Overall bit rate : 8 771 kb/s
Movie name : Доктор Стрендж у Мультивсесвіті божевілля / Doctor Strange in the Multiverse of Madness (2022)
Encoded date : UTC 2022-06-24 20:40:52
Writing application : mkvmerge v67.0.0 ('Under Stars') 64-bit
Writing library : libebml v1.4.2 + libmatroska v1.6.4
Cover : Yes
Attachments : Cover.jpg

Video
ID : 1
Format : AVC
Format/Info : Advanced Video Codec
Format profile : [email protected]
Format settings : CABAC / 4 Ref Frames
Format settings, CABAC : Yes
Format settings, Reference frames : 4 frames
Codec ID : V_MPEG4/ISO/AVC
Duration : 2 h 6 min
Bit rate mode : Variable
Bit rate : 7 488 kb/s
Maximum bit rate : 12.7 Mb/s
Width : 1 920 pixels
Height : 1 080 pixels
Display aspect ratio : 16:9
Frame rate mode : Constant
Frame rate : 23.976 (24000/1001) FPS
Color space : YUV
Chroma subsampling : 4:2:0
Bit depth : 8 bits
Scan type : Progressive
Bits/(Pixel*Frame) : 0.151
Stream size : 6.62 GiB (85%)
Title : Доктор Стрендж у Мультивсесвіті божевілля / Doctor Strange in the Multiverse of Madness (2022)
Language : English
Default : Yes
Forced : Yes
Color range : Limited
Color primaries : BT.709
Transfer characteristics : BT.709
Matrix coefficients : BT.709

Audio #1
ID : 2
Format : AC-3
Format/Info : Audio Coding 3
Commercial name : Dolby Digital
Codec ID : A_AC3
Duration : 2 h 6 min
Bit rate mode : Constant
Bit rate : 512 kb/s
Channel(s) : 6 channels
Channel layout : L R C LFE Ls Rs
Sampling rate : 48.0 kHz
Frame rate : 31.250 FPS (1536 SPF)
Compression mode : Lossy
Stream size : 463 MiB (6%)
Title : AC-3 / 5.1 Ch / 512 kbps / MVO / Студія "Цікава Ідея"
Language : Ukrainian
Service kind : Complete Main
Default : Yes
Forced : Yes

Audio #2
ID : 3
Format : E-AC-3 JOC
Format/Info : Enhanced AC-3 with Joint Object Coding
Commercial name : Dolby Digital Plus with Dolby Atmos
Codec ID : A_EAC3
Duration : 2 h 6 min
Bit rate mode : Constant
Bit rate : 768 kb/s
Channel(s) : 6 channels
Channel layout : L R C LFE Ls Rs
Sampling rate : 48.0 kHz
Frame rate : 31.250 FPS (1536 SPF)
Compression mode : Lossy
Stream size : 695 MiB (9%)
Title : E-AC3 / 5.1 Ch / 768 kbps / Original
Language : English
Service kind : Complete Main
Default : No
Forced : No
Complexity index : 16
Number of dynamic objects : 15
Bed channel count : 1 channel
Bed channel configuration : LFE

Text
ID : 4
Format : UTF-8
Codec ID : S_TEXT/UTF8
Codec ID/Info : UTF-8 Plain Text
Duration : 2 h 5 min
Bit rate : 37 b/s
Count of elements : 1249
Stream size : 34.1 KiB (0%)
Title : Full
Language : English
Default : No
Forced : No
pb.wtf



Скачать Доктор Стрэндж: В мультивселенной безумия через торрент https://i120.fastpic.org/big/2022/0625/8b/d3f0961fbfe113bd6ee33014b49de98b.jpg Скачать, смотреть онлайн Доктор Стрэндж: В мультивселенной безумия бесплантно в хорошем качестве Описание: Доктор Стрэндж объединяется с таинственной девочкой-подростком из своих снов, которая может путешествовать по мультивселенным, ... 6.4 10 5
Info! Золотая раздача, скачанное не засчитывается.
Торрент: Зарегистрирован [2022-06-25 10:53] · скачан: 65 раз
Статус: √ проверено
Размер: 7.75 GB
Как cкачать? Как скачать Доктор Стрэндж: В мультивселенной безумия через торрент | UTorrent

% Раздел Тема Автор DL S | L
Фильмы 2022 [DVDrip, WEB-DLRip, HDrip] (DUB, MVO) [ 4.53 GB ] Доктор Стрэндж: В мультивселенной безумия / Doctor Strange in the Multiverse of Madness [2022 комикс BDRip-AVC] DUB MVO AVO [Невафильм HDRezka Studio Jaskier NewComers Есарев] Lithuania Скачать
11 | 0
Фильмы [HD 720p, 1080p] (Хороший звук DUB, MVO) [ 14.63 GB ] Доктор Стрэндж: В мультивселенной безумия / Doctor Strange in the Multiverse of Madness [2022 BDRip 1080p] DUB [Невафильм] +3xMVO +AVO bober100 Скачать
17 | 2
Фильмы (WEB-DL 720p, 1080p) [ 8.43 GB ] Доктор Стрэндж: В мультивселенной безумия / Doctor Strange in the Multiverse of Madness [2022 WEB-DL 1080p] [IMAX] 3xMVO bober100 Скачать
46 | 0
3D Фильмы [ 7.39 GB ] Доктор Стрэндж: В мультивселенной безумия в 3D / Doctor Strange in the Multiverse of Madness in 3D [2022 3D BDRip 1080p ] Анаглиф от R.G. HD-Films slaventi-69 Скачать
1 | 1
Фильмы (HD 720p, 1080p) (48-60 fps) [ 6.01 GB ] Доктор Стрэндж: В мультивселенной безумия / Doctor Strange in the Multiverse of Madness [2022 WEB-DLRip 720p / 60 FPS ] IMAX от R.G. HD-Films slaventi-69 Скачать
12 | 2
Фильмы (HD 720p, 1080p) (48-60 fps) [ 4.94 GB ] Доктор Стрэндж: В мультивселенной безумия / Doctor Strange in the Multiverse of Madness [2022 WEB-DLRip 720p / 60 FPS ] от R.G. HD-Films slaventi-69 Скачать
9 | 1
Фильмы [HD 720p, 1080p] (Хороший звук DUB, MVO) [ 4.78 GB ] Доктор Стрэндж: В мультивселенной безумия / Doctor Strange in the Multiverse of Madness [2022 BDRip-HEVC 1080p ] DUB [Невафильм] bober100 Скачать
16 | 2

28-11-2019 20:33  

Отключить вcю реклaмy на сайте

    Дорогой пользователь! Огромная просьба, поблагодарите релизера, оцените раздачу и оставьте свои комментарий, если Вы скачали Доктор Стрэндж: В мультивселенной безумия через торрент бесплатно!
    Комментировать посты могут только пользователи прошедшие не сложную регистрацию
    Показать сообщения:    

    Доктор Стрэндж: В мультивселенной безумия через торрент
    Скачать бесплатно Доктор Стрэндж: В мультивселенной безумия
    Доктор Стрэндж: В мультивселенной безумия скачать торрент
    Доктор Стрэндж: В мультивселенной безумия смотреть онлайн
    Cкачать фильм Доктор Стрэндж: В мультивселенной безумия бесплатно
    Доктор Стрэндж: В мультивселенной безумия скачать торрент в хорошем качестве
    Доктор Стрэндж: В мультивселенной безумия смотреть онлайн бесплатно в хорошем качестве


    Вы не можете начинать темы
    Вы не можете отвечать на сообщения
    Вы не можете редактировать свои сообщения
    Вы не можете удалять свои сообщения
    Вы не можете голосовать в опросах
    Вы не можете прикреплять файлы к сообщениям
    Вы можете скачивать файлы