Всегда рабочее зеркало без VPN и Proxy просто перед .vidak.icu напиши любое слово или цифру, Пример http://8zgi.vidak.icu

Лицензия

MVO

1 сезон

1

1 сезон

iTunes

1 сезон

13

1 сезон

Deluxe

pack

Рекомендуем

Repack

30

ВАЖНО

RePack

MK11

RePack

jed

RePack

fifa19

RePack

RDR2

RePack

NEED FOR SPEED™ PAYBACK

Кинопоиск HD

6 сезон

 Острые козырьки 6 сезон

Все сериалы

все сериалы на PB.wtf

RePack

FAR CRY 5
  
Magnet ссылка

Роковая ошибка / Греховная неверность / Sinfidelity (Тамар Халперн) [2020, Триллер, WEB-DL 1080p] MVO [IVI] pb.wtf

Роковая ошибка через торрент pb.wtf

Раздают: 1 [ 0 KB/s ]
Размер: 3.07 GB | Добавлен: 1 мес. 20 д. назад | Торрент скачан:56 раз
Смотреть онлайн Роковая ошибка | Скачать    Ребята, помогите собрать деньги на оплату серверов!!!

25-06-2022 13:46 Роковая ошибка Скачать торрент  

Роковая ошибка | Греховная неверность
Sinfidelity

Год выпуска: 2020
Страна: США
Выпущено: Curmudgeon Films, Storyworks Entertainment
Жанр: Триллер
Продолжительность: 01:22:52
Перевод: Профессиональный (многоголосый) | IVI
Субтитры: отсутствуют

Режиссер: Тамар Халперн

rating

В ролях: Пайпер Блэр, Хезер Брэверман, Эйдан Бристоу, Энн Николс Браун, Кэролайн Коул, Кристин Дэниэл, Генри Фрост, Блайт Ховард, Марк Салливан, Джейд Тейлор

Описание: У Анджелы уже был печальный опыт измен мужа. Очередные подозрения в неверности супруга толкают ее в объятия горячего латиноамериканского мачо. Но что если она ошиблась в своих подозрениях? Короткий роман превращается в кошмар: одержимый кавалер начинает преследовать ее…

Качество: WEB-DL 1080p
Формат: MKV

Видео: MPEG-4 AVC, 5120 Kb/s, 1920x1080, 25.000 fps
Аудио: 48.0 kHz, AC3 Dolby Digital, 2/0 (L,R) ch, ~ 192 kbps
скриншот  скриншот  скриншот  скриншот  

Complete name: Rokovaya.oshibka.2020.WEB-DL.1080p.ELEKTRI4KA.UNIONGANG.mkv
Format: Matroska
Format version: Version 4
File size: 3.07 GiB
Duration: 1 h 22 min
Overall bit rate: 5 308 kb/s
Movie name: Rokovaya.oshibka.2020.WEB-DL.1080p.ELEKTRI4KA.UNIONGANG.
Encoded date: UTC 2022-06-25 10:47:41
Writing application: mkvmerge v8.3.0 ('Over the Horizon') 32bit
Writing library: libebml v1.3.1 + libmatroska v1.4.2

Video
ID: 1
Format: AVC
Format/Info: Advanced Video Codec
Format profile: [email protected]
Format settings: CABAC / 4 Ref Frames
Format settings, CABAC: Yes
Format settings, Reference frames: 4 frames
Codec ID: V_MPEG4/ISO/AVC
Duration: 1 h 22 min
Bit rate: 5 120 kb/s
Width: 1 920 pixels
Height: 1 080 pixels
Display aspect ratio: 16:9
Frame rate mode: Constant
Frame rate: 25.000 FPS
Color space: YUV
Chroma subsampling: 4:2:0
Bit depth: 8 bits
Scan type: Progressive
Bits/(Pixel*Frame): 0.099
Stream size: 2.96 GiB (96%)
Writing library: x264 core 152 r2854 e9a5903
Encoding settings: cabac=1 / ref=3 / deblock=1:0:0 / analyse=0x3:0x113 / me=hex / subme=7 / psy=1 / psy_rd=1.00:0.00 / mixed_ref=1 / me_range=16 / chroma_me=1 / trellis=1 / 8x8dct=1 / cqm=0 / deadzone=21, 11 / fast_pskip=1 / chroma_qp_offset=-2 / threads=34 / lookahead_threads=5 / sliced_threads=0 / nr=0 / decimate=1 / interlaced=0 / bluray_compat=0 / constrained_intra=0 / bframes=6 / b_pyramid=2 / b_adapt=1 / b_bias=0 / direct=1 / weightb=1 / open_gop=0 / weightp=2 / keyint=50 / keyint_min=26 / scenecut=0 / intra_refresh=0 / rc_lookahead=40 / rc=2pass / mbtree=1 / bitrate=5120 / ratetol=1.0 / qcomp=0.60 / qpmin=0 / qpmax=69 / qpstep=4 / cplxblur=20.0 / qblur=0.5 / vbv_maxrate=7680 / vbv_bufsize=20480 / nal_hrd=none / filler=0 / ip_ratio=1.40 / aq=1:1.00
Default: Yes
Forced: No

Audio
ID: 2
Format: AC-3
Format/Info: Audio Coding 3
Commercial name: Dolby Digital
Codec ID: A_AC3
Duration: 1 h 22 min
Bit rate mode: Constant
Bit rate: 192 kb/s
Channel(s): 2 channels
Channel layout: L R
Sampling rate: 48.0 kHz
Frame rate: 31.250 FPS (1536 SPF)
Compression mode: Lossy
Stream size: 114 MiB (4%)
Title: MVO (IVI)
Language: Russian
Service kind: Complete Main
Default: Yes
Forced: Yes

pb.wtf



Скачать Роковая ошибка через торрент https://i120.fastpic.org/big/2022/0625/58/469cb956fd8cdcd317b11378ddd51558.jpg Скачать, смотреть онлайн Роковая ошибка бесплантно в хорошем качестве Описание: У Анджелы уже был печальный опыт измен мужа. Очередные подозрения в неверности супруга толкают ее в объятия горячего ... 7 10 6
Торрент: Зарегистрирован [2022-06-25 13:46] · скачан: 56 раз
Статус: √ проверено
Размер: 3.07 GB
Как cкачать? Как скачать Роковая ошибка через торрент | UTorrent

28-11-2019 20:33  

Отключить вcю реклaмy на сайте

    Дорогой пользователь! Огромная просьба, поблагодарите релизера, оцените раздачу и оставьте свои комментарий, если Вы скачали Роковая ошибка через торрент бесплатно!
    Комментировать посты могут только пользователи прошедшие не сложную регистрацию
    Показать сообщения:    

    Роковая ошибка через торрент
    Скачать бесплатно Роковая ошибка
    Роковая ошибка скачать торрент
    Роковая ошибка смотреть онлайн
    Cкачать фильм Роковая ошибка бесплатно
    Роковая ошибка скачать торрент в хорошем качестве
    Роковая ошибка смотреть онлайн бесплатно в хорошем качестве


    Вы не можете начинать темы
    Вы не можете отвечать на сообщения
    Вы не можете редактировать свои сообщения
    Вы не можете удалять свои сообщения
    Вы не можете голосовать в опросах
    Вы не можете прикреплять файлы к сообщениям
    Вы можете скачивать файлы