Доктор Стрэндж

Лицензия

Добыча

Дубляж

Дом дракона

1 сезон

Тор

Дубляж

В эфире

Дубляж

Там, где раки поют

MVO

Властелин колец

1 сезон

Deluxe

pack

Рекомендуем

30

Пиратка

ВАЖНО

ВАЖНО

Ghostwire

Пиратка

jed

RePack

nioh2

RePack

RDR2

RePack

NEED FOR SPEED™ PAYBACK

RePack

скачать торрент

Кинопоиск HD

Острые козырьки 6 сезон

6 сезон

FAR CRY 6

RePack

скачать торрент

Лицензия

скачать торрент

MVO

1

1 сезон

скачать торрент

1 сезон

скачать торрент

Лицензия

  

Доктор Стрэндж: В мультивселенной безумия / Doctor Strange in the Multiverse of Madness (Сэм Рэйми) [2022, Фантастика, фэнтези, боевик, приключения, ужасы, UHD WEB-DL-HEVC 2160p] [IMAX] 3xMVO

Доктор Стрэндж: В мультивселенной безумия через торрент pb.wtf

Раздают: 10 [ 395 KB/s ] Качают: 1 [ 8 MB/s ]
Размер: 16.47 GB | Добавлен: 5 мес. 7 д. назад | Торрент скачан:948 раз
Смотреть онлайн | Скачать   

26-06-2022 02:26 Доктор Стрэндж: В мультивселенной безумия Скачать торрент  

Доктор Стрэндж: В мультивселенной безумия
Doctor Strange in the Multiverse of Madness

Год выпуска: 2022
Страна: США
Студия: Marvel Studios
Жанр: Фантастика, фэнтези, боевик, приключения, ужасы
Продолжительность: 02:06:31
Перевод:
#1: Профессиональный многоголосый | HDRezka
#2: Профессиональный многоголосый | Jaskier
#3: Профессиональный многоголосый | NewComers
Субтитры: Русские (2 x Forced, full), английские

Режиссер: Сэм Рэйми

rating

В ролях: Бенедикт Камбербэтч, Элизабет Олсен, Чиветел Эджиофор, Бенедикт Вонг, Сочил Гомес, Майкл Стулбарг, Рэйчел МакАдамс, Патрик Стюарт, Брюс Кэмпбелл, Джулиан Хиллиард

Описание: Стабильность пространства временного континуума нарушена, и в мультивселенную открыт портал, через который в нашу реальность просачиваются монстры из других миров. Один из них охотится за подростком Америкой Чавез — именно ее Доктор Стрэндж видит в своих загадочных снах каждую ночь. Чтобы помочь девушке, Стрэндж обращается за помощью к Ванде Максимофф. Но недосягаемая мечта застилает ей глаза, превращая Ванду в безжалостую Алую Ведьму.

Качество: UHD WEB-DL-HEVC 2160p | IMAX
Формат: MKV

Видео: 3840x2160 at 23.976 fps, MPEG-H HEVC HDR ~ 16600 kbps avg
Аудио #01: 48 kHz, AC3, 5.1, 448 Kbps | Профессиональный многоголосый | HDRezka | RUS |
Аудио #02: 48 kHz, AC3, 5.1, 448 Kbps | Профессиональный многоголосый | Jaskier | RUS |
Аудио #03: 48 kHz, AC3, 5.1, 384 Kbps | Профессиональный многоголосый | NewComers | RUS |
Аудио #04: 48 kHz, E-AC3+Atmos, 5.1, 768 Kbps | Оригинал | ENG |
скриншот  скриншот  скриншот  скриншот  скриншот  

General
Unique ID : 260558515525777720257220197007238880577 (0xC405BEA6BB3862ECE99E07504B77DD41)
Complete name : D:Video1Doctor.Strange.in.the.Multiverse.of.Madness.2022.IMAX.WEB-DL.2160p.HDR.seleZen.mkv
Format : Matroska
Format version : Version 4
File size : 16.5 GiB
Duration : 2 h 6 min
Overall bit rate : 18.6 Mb/s
Movie name : Doctor.Strange.in.the.Multiverse.of.Madness.2022.IMAX.seleZen
Encoded date : UTC 2022-06-25 19:47:17
Writing application : mkvmerge v59.0.0 ('Shining Star') 64-bit
Writing library : libebml v1.4.2 + libmatroska v1.6.4

Video
ID : 1
Format : HEVC
Format/Info : High Efficiency Video Coding
Format profile : Main [email protected]@High
HDR format : SMPTE ST 2086, HDR10 compatible
Codec ID : V_MPEGH/ISO/HEVC
Duration : 2 h 6 min
Bit rate : 16.6 Mb/s
Width : 3 840 pixels
Height : 2 160 pixels
Display aspect ratio : 16:9
Frame rate mode : Constant
Frame rate : 23.976 (24000/1001) FPS
Color space : YUV
Chroma subsampling : 4:2:0
Bit depth : 10 bits
Bits/(Pixel*Frame) : 0.083
Stream size : 14.7 GiB (89%)
Language : English
Default : No
Forced : No
Color range : Limited
Color primaries : BT.2020
Transfer characteristics : PQ
Matrix coefficients : BT.2020 non-constant
Mastering display color pri: BT.2020
Mastering display luminance: min: 0.0000 cd/m2, max: 1000 cd/m2

Audio #1
ID : 2
Format : AC-3
Format/Info : Audio Coding 3
Commercial name : Dolby Digital
Codec ID : A_AC3
Duration : 2 h 6 min
Bit rate mode : Constant
Bit rate : 448 kb/s
Channel(s) : 6 channels
Channel layout : L R C LFE Ls Rs
Sampling rate : 48.0 kHz
Frame rate : 31.250 FPS (1536 SPF)
Compression mode : Lossy
Stream size : 405 MiB (2%)
Title : MVO [HDRezka]
Language : Russian
Service kind : Complete Main
Default : Yes
Forced : Yes

Audio #2
ID : 3
Format : AC-3
Format/Info : Audio Coding 3
Commercial name : Dolby Digital
Codec ID : A_AC3
Duration : 2 h 6 min
Bit rate mode : Constant
Bit rate : 448 kb/s
Channel(s) : 6 channels
Channel layout : L R C LFE Ls Rs
Sampling rate : 48.0 kHz
Frame rate : 31.250 FPS (1536 SPF)
Compression mode : Lossy
Stream size : 405 MiB (2%)
Title : MVO [Jaskier]
Language : Russian
Service kind : Complete Main
Default : No
Forced : No

Audio #3
ID : 4
Format : AC-3
Format/Info : Audio Coding 3
Commercial name : Dolby Digital
Codec ID : A_AC3
Duration : 2 h 6 min
Bit rate mode : Constant
Bit rate : 384 kb/s
Channel(s) : 6 channels
Channel layout : L R C LFE Ls Rs
Sampling rate : 48.0 kHz
Frame rate : 31.250 FPS (1536 SPF)
Compression mode : Lossy
Stream size : 348 MiB (2%)
Title : MVO [NewComers]
Language : Russian
Service kind : Complete Main
Default : No
Forced : No

Audio #4
ID : 5
Format : E-AC-3 JOC
Format/Info : Enhanced AC-3 with Joint Object Coding
Commercial name : Dolby Digital Plus with Dolby Atmos
Codec ID : A_EAC3
Duration : 2 h 6 min
Bit rate mode : Constant
Bit rate : 768 kb/s
Channel(s) : 6 channels
Channel layout : L R C LFE Ls Rs
Sampling rate : 48.0 kHz
Frame rate : 31.250 FPS (1536 SPF)
Compression mode : Lossy
Stream size : 695 MiB (4%)
Title : Original
Language : English
Service kind : Complete Main
Default : No
Forced : No
Complexity index : 16
Number of dynamic objects : 15
Bed channel count : 1 channel
Bed channel configuration : LFE

Text #1
ID : 6
Format : UTF-8
Codec ID : S_TEXT/UTF8
Codec ID/Info : UTF-8 Plain Text
Duration : 2 h 4 min
Bit rate : 1 b/s
Count of elements : 17
Stream size : 1.01 KiB (0%)
Title : Forced [HDRezka]
Language : Russian
Default : Yes
Forced : Yes

Text #2
ID : 7
Format : UTF-8
Codec ID : S_TEXT/UTF8
Codec ID/Info : UTF-8 Plain Text
Duration : 25 min 8 s
Bit rate : 2 b/s
Count of elements : 10
Stream size : 480 Bytes (0%)
Title : Forced v.2
Language : Russian
Default : No
Forced : No

Text #3
ID : 8
Format : UTF-8
Codec ID : S_TEXT/UTF8
Codec ID/Info : UTF-8 Plain Text
Duration : 2 h 5 min
Bit rate : 68 b/s
Count of elements : 1253
Stream size : 62.4 KiB (0%)
Title : Full
Language : Russian
Default : No
Forced : No

Text #4
ID : 9
Format : UTF-8
Codec ID : S_TEXT/UTF8
Codec ID/Info : UTF-8 Plain Text
Duration : 25 min 8 s
Bit rate : 1 b/s
Count of elements : 10
Stream size : 265 Bytes (0%)
Title : Forced
Language : English
Default : No
Forced : No

Text #5
ID : 10
Format : UTF-8
Codec ID : S_TEXT/UTF8
Codec ID/Info : UTF-8 Plain Text
Duration : 2 h 5 min
Bit rate : 37 b/s
Count of elements : 1321
Stream size : 34.4 KiB (0%)
Title : Full
Language : English
Default : No
Forced : No

Text #6
ID : 11
Format : UTF-8
Codec ID : S_TEXT/UTF8
Codec ID/Info : UTF-8 Plain Text
Duration : 2 h 5 min
Bit rate : 50 b/s
Count of elements : 1906
Stream size : 46.5 KiB (0%)
Title : SDH
Language : English
Default : No
Forced : No

Menu
00:00:00.000 : Chapter 01
00:03:51.398 : Chapter 02
00:08:26.506 : Chapter 03
00:14:19.442 : Chapter 04
00:18:23.061 : Chapter 05
00:24:37.602 : Chapter 06
00:37:58.153 : Chapter 07
00:47:15.502 : Chapter 08
00:50:03.545 : Chapter 09
00:55:51.059 : Chapter 10
00:59:46.336 : Chapter 11
01:02:19.656 : Chapter 12
01:05:18.418 : Chapter 13
01:07:20.790 : Chapter 14
01:15:03.586 : Chapter 15
01:17:01.871 : Chapter 16
01:19:18.383 : Chapter 17
01:23:29.342 : Chapter 18
01:26:34.194 : Chapter 19
01:28:51.206 : Chapter 20
01:34:47.270 : Chapter 21
01:37:38.650 : Chapter 22
01:41:27.629 : Chapter 23
01:51:03.288 : Chapter 24
01:53:26.473 : Chapter 25
01:55:38.855 : Chapter 26
01:56:32.075 : Chapter 27
01:58:48.378 : Chapter 28
01:59:25.665 : Chapter 29




Скачать Доктор Стрэндж: В мультивселенной безумия через торрент https://i120.fastpic.org/big/2022/0625/9e/1d6d96044e30404f906c7401ae6b379e.jpg Скачать, смотреть онлайн Доктор Стрэндж: В мультивселенной безумия бесплантно в хорошем качестве Описание: Стабильность пространства временного континуума нарушена, и в мультивселенную открыт портал, через который в нашу реальность ... 9.2 10 24
Info! Золотая раздача, скачанное не засчитывается.
Торрент: Зарегистрирован [2022-06-26 02:26] · скачан: 948 раз
Статус: √ проверено
Размер: 16.47 GB
Как cкачать? Как скачать Доктор Стрэндж: В мультивселенной безумия через торрент | UTorrent

% Раздел Тема Автор DL S | L
Фильмы [HD 720p, 1080p] (Хороший звук DUB, MVO) [ 14.63 GB ] Доктор Стрэндж: В мультивселенной безумия / Doctor Strange in the Multiverse of Madness | DUB | 1080p bober100 Скачать
12 | 0
Фильмы (WEB-DL 720p, 1080p) [ 8.43 GB ] Доктор Стрэндж: В мультивселенной безумия / Doctor Strange in the Multiverse of Madness | MVO | 1080p bober100 Скачать
25 | 0
Фильмы [HD 720p, 1080p] (Хороший звук DUB, MVO) [ 8.21 GB ] Доктор Стрэндж: В мультивселенной безумия / Doctor Strange in the Multiverse of Madness | DUB | 720p bober100 Скачать
6 | 0
Фильмы (Blu-ray, BD-Remux, HDDVD) [ 35.84 GB ] Доктор Стрэндж: В мультивселенной безумия / Doctor Strange in the Multiverse of Madness | DUB | BD Remux 1080p bober100 Скачать
4 | 0
Ultra HD (UHD: 2K, 4K, 8K) [ 48.56 GB ] Доктор Стрэндж: В мультивселенной безумия / Doctor Strange in the Multiverse of Madness | DUB | 2160p, (Dolby Vision Profile 8 / HYBRID bober100 Скачать
3 | 0

28-11-2019 20:33  


Отключить вcю реклaмy на сайте, в т.ч. и в плеере онлайн просмотра!

    Дорогой пользователь! Огромная просьба, поблагодарите релизера, оцените раздачу и оставьте свои комментарий, если Вы скачали Доктор Стрэндж: В мультивселенной безумия через торрент бесплатно!!
    Комментировать посты могут только пользователи прошедшие не сложную регистрацию
    Показать сообщения:    


    Доктор Стрэндж: В мультивселенной безумия через торрент
    Скачать бесплатно Доктор Стрэндж: В мультивселенной безумия
    Доктор Стрэндж: В мультивселенной безумия скачать торрент
    Доктор Стрэндж: В мультивселенной безумия смотреть онлайн
    Cкачать фильм Доктор Стрэндж: В мультивселенной безумия бесплатно
    Доктор Стрэндж: В мультивселенной безумия скачать торрент в хорошем качестве
    Доктор Стрэндж: В мультивселенной безумия смотреть онлайн бесплатно в хорошем качестве
    Вы не можете начинать темы
    Вы не можете отвечать на сообщения
    Вы не можете редактировать свои сообщения
    Вы не можете удалять свои сообщения
    Вы не можете голосовать в опросах
    Вы не можете прикреплять файлы к сообщениям
    Вы можете скачивать файлы
    Доктор Стрэндж: В мультивселенной безумия / Doctor Strange in the Multiverse of Madness [2022, Фантастика, фэнтези, боевик, приключения, ужасы, UHD WEB-DL-HEVC 2160p] [IMAX] 3xMVO смотреть онлайн, скачать торрент picoco.icu