Всегда рабочее зеркало без VPN и Proxy просто перед .vidak.icu напиши любое слово или цифру, Пример http://oeaq.vidak.icu

Лицензия

MVO

1 сезон

1

1 сезон

iTunes

1 сезон

13

1 сезон

Deluxe

pack

Рекомендуем

Repack

30

ВАЖНО

RePack

MK11

RePack

jed

RePack

fifa19

RePack

RDR2

RePack

NEED FOR SPEED™ PAYBACK

Кинопоиск HD

6 сезон

 Острые козырьки 6 сезон

Все сериалы

все сериалы на PB.wtf

RePack

FAR CRY 5
  
Magnet ссылка

Бивис и Батт-Хед уделывают Вселенную / Beavis and Butt-Head Do the Universe (Майк Джадж) [2022, Комедия, мультфильм, WEB-DL 1080p] MVO [Jaskier] pb.wtf

Бивис и Батт-Хед уделывают Вселенную через торрент pb.wtf

Раздают: 12 [ 137 KB/s ]
Размер: 6.39 GB | Добавлен: 1 мес. 21 д. назад | Торрент скачан:390 раз
Смотреть онлайн Бивис и Батт-Хед уделывают Вселенную | Скачать    Ребята, помогите собрать деньги на оплату серверов!!!

26-06-2022 02:33 Бивис и Батт-Хед уделывают Вселенную Скачать торрент  

Бивис и Батт-Хед уделывают Вселенную
Beavis and Butt-Head Do the Universe

Год выпуска: 2022
Страна: США
Выпущено: MTV Entertainment Studios
Жанр: Комедия, мультфильм
Продолжительность: 01:26:01
Перевод: Профессиональный (многоголосый) | Jaskier
Субтитры: Aнглийские

Режиссер: Майк Джадж

rating

В ролях: Майк Джадж, Мэри Бёрдсонг, Гэри Коул, Крис Диамантопулос, Нэт Факсон, Зехра Фазал, Эшли Гарднер, Дэвид Херман, Брайан Хаски, Тоби Хасс, Фил ЛаМарр, Чи Макбрайд, Тиг Нотаро, Токс Олагундой, Стивен Рут, Андреа Сэвидж, Мартин Старр, Тру Валентино

Описание: 1998 год. Бивис и Батт-Хед оказываются в космическом лагере, куда их отправил судья по делам несовершеннолетних. Им предлагают поучаствовать в космической миссии, но что-то идёт не так и приятели попадают в чёрную дыру, которая переносит их в 2022 год.

Качество: WEB-DL 1080p
Формат: MKV

Видео: MPEG-4 AVC, 9542 Кбит/с, 1920x1080
Аудио #1: AC3, 6 ch, 448 Кбит/с | RUS |
Аудио #2: E-AC3, 6 ch, 640 Кбит/с | ENG |
скриншот  скриншот  скриншот  скриншот  

General
Unique ID: 46812921585739943447767209984963807736 (0x2337D73B2BB137D398E9B2791FE289F8)
Complete name: E:TorrentsBeavis.and.Butt-Head.2022.1080p_от New-Team.mkv
Format: Matroska
Format version: Version 4
File size: 6.39 GiB
Duration: 1 h 26 min
Overall bit rate: 10.6 Mb/s
Movie name: Beavis.and.Butt-Head.2022.1080p_от New-Team
Encoded date: UTC 2022-06-25 18:38:38
Writing application: mkvmerge v59.0.0 ('Shining Star') 64-bit
Writing library: libebml v1.4.2 + libmatroska v1.6.4

Video
ID: 1
Format: AVC
Format/Info: Advanced Video Codec
Format profile: [email protected]
Format settings: CABAC / 4 Ref Frames
Format settings, CABAC: Yes
Format settings, Reference: 4 frames
Codec ID: V_MPEG4/ISO/AVC
Duration: 1 h 26 min
Bit rate: 9 542 kb/s
Width: 1 920 pixels
Height: 1 080 pixels
Display aspect ratio: 16:9
Frame rate mode: Constant
Frame rate: 24.000 FPS
Color space: YUV
Chroma subsampling: 4:2:0
Bit depth: 8 bits
Scan type: Progressive
Bits/(Pixel*Frame): 0.192
Stream size: 5.73 GiB (90%)
Default: Yes
Forced: No
Color range: Limited
Color primaries: BT.709
Transfer characteristics: BT.709
Matrix coefficients: BT.709

Audio #1
ID: 2
Format: AC-3
Format/Info: Audio Coding 3
Commercial name: Dolby Digital
Codec ID: A_AC3
Duration: 1 h 26 min
Bit rate mode: Constant
Bit rate: 448 kb/s
Channel(s): 6 channels
Channel layout: L R C LFE Ls Rs
Sampling rate: 48.0 kHz
Frame rate: 31.250 FPS (1536 SPF)
Compression mode: Lossy
Stream size: 276 MiB (4%)
Title: MVO - Jaskier
Language: Russian
Service kind: Complete Main
Default: Yes
Forced: No

Audio #2
ID: 3
Format: E-AC-3
Format/Info: Enhanced AC-3
Commercial name: Dolby Digital Plus
Codec ID: A_EAC3
Duration: 1 h 26 min
Bit rate mode: Constant
Bit rate: 640 kb/s
Channel(s): 6 channels
Channel layout: L R C LFE Ls Rs
Sampling rate: 48.0 kHz
Frame rate: 31.250 FPS (1536 SPF)
Compression mode: Lossy
Stream size: 394 MiB (6%)
Language: English
Service kind: Complete Main
Default: No
Forced: No

Text
ID: 4
Format: UTF-8
Codec ID: S_TEXT/UTF8
Codec ID/Info: UTF-8 Plain Text
Duration: 1 h 25 min
Bit rate: 100 b/s
Count of elements: 2153
Stream size: 63.3 KiB (0%)
Title: English [SDH]
Language: English
Default: No
Forced: No

pb.wtf



Скачать Бивис и Батт-Хед уделывают Вселенную через торрент https://i120.fastpic.org/big/2022/0625/24/020837a09fb758bfc37ea3546828bf24.jpg Скачать, смотреть онлайн Бивис и Батт-Хед уделывают Вселенную бесплантно в хорошем качестве Описание: 1998 год. Бивис и Батт-Хед оказываются в космическом лагере, куда их отправил судья по делам несовершеннолетних. Им предлагают ... 9.4 10 25
Торрент: Зарегистрирован [2022-06-26 02:33] · скачан: 390 раз
Статус: √ проверено
Размер: 6.39 GB
Как cкачать? Как скачать Бивис и Батт-Хед уделывают Вселенную через торрент | UTorrent

% Раздел Тема Автор DL S | L
Оформление раздач (Кино, Видео и ТВ) [ 2.22 GB ] Бивис и Батт-Хед уделывают Вселенную / Beavis and Butt-Head Do the Universe [2022 Мультфильм WEB-DL Jaskier] Бумер Скачать
5 | 0

28-11-2019 20:33  

Отключить вcю реклaмy на сайте

26-06-2022 07:36 Бивис и Батт-Хед уделывают Вселенную Скачать торрент  

6гб, ну не, ждем "1,5".pb.wtf



26-06-2022 09:04 Бивис и Батт-Хед уделывают Вселенную Скачать торрент  

глянул. ну такой, для олд0в. да и олдЫ не только лишь все ))pb.wtf



26-06-2022 17:11 Бивис и Батт-Хед уделывают Вселенную Скачать торрент  

Они вернулись!!! Ну-с, заценим (я - олд:))pb.wtf



26-06-2022 17:26 Бивис и Батт-Хед уделывают Вселенную Скачать торрент  

Я ВЕЛИКИЙ КУКУРУЗО!!!!!pb.wtf



26-06-2022 20:46 Бивис и Батт-Хед уделывают Вселенную Скачать торрент  

хе хе! Хе хе! хЕ ХЕ! ))))pb.wtf



30-06-2022 12:20 Бивис и Батт-Хед уделывают Вселенную Скачать торрент  

это говно еще кому то надо? даже олдам ....pb.wtf



03-07-2022 17:56 Бивис и Батт-Хед уделывают Вселенную Скачать торрент  

я хоть и олд, но и тогда их не любил. Настолько они тупые это писец!pb.wtf



23-07-2022 09:12 Бивис и Батт-Хед уделывают Вселенную Скачать торрент  

прикольный мульт и перевод хороший, но перевод иногда плохо слышно !этих дебилов не любил смотреть, а тут реально стёб и как долбанутых толкают по жизни.pb.wtf



25-07-2022 11:21 Бивис и Батт-Хед уделывают Вселенную Скачать торрент  

я думал херь, как обычно с возвращением старых героев, но это вполне смотрибельно, даже забавно)pb.wtf



    Дорогой пользователь! Огромная просьба, поблагодарите релизера, оцените раздачу и оставьте свои комментарий, если Вы скачали Бивис и Батт-Хед уделывают Вселенную через торрент бесплатно!
    Комментировать посты могут только пользователи прошедшие не сложную регистрацию
    Показать сообщения:    

    Бивис и Батт-Хед уделывают Вселенную через торрент
    Скачать бесплатно Бивис и Батт-Хед уделывают Вселенную
    Бивис и Батт-Хед уделывают Вселенную скачать торрент
    Бивис и Батт-Хед уделывают Вселенную смотреть онлайн
    Cкачать фильм Бивис и Батт-Хед уделывают Вселенную бесплатно
    Бивис и Батт-Хед уделывают Вселенную скачать торрент в хорошем качестве
    Бивис и Батт-Хед уделывают Вселенную смотреть онлайн бесплатно в хорошем качестве


    Вы не можете начинать темы
    Вы не можете отвечать на сообщения
    Вы не можете редактировать свои сообщения
    Вы не можете удалять свои сообщения
    Вы не можете голосовать в опросах
    Вы не можете прикреплять файлы к сообщениям
    Вы можете скачивать файлы