Всегда рабочее зеркало без VPN и Proxy просто перед .vidak.icu напиши любое слово или цифру, Пример http://rrc6.vidak.icu

Лицензия

MVO

1 сезон

1

1 сезон

iTunes

1 сезон

13

1 сезон

Deluxe

pack

Рекомендуем

Repack

30

ВАЖНО

RePack

MK11

RePack

jed

RePack

fifa19

RePack

RDR2

RePack

NEED FOR SPEED™ PAYBACK

Кинопоиск HD

6 сезон

 Острые козырьки 6 сезон

Все сериалы

все сериалы на PB.wtf

RePack

FAR CRY 5
  
Magnet ссылка

Среди акул / Swimming with Sharks / Сезон: 1 / Серия: 1-6 из 6 (Такер Гейтс, Крис Коулз) [2022, Драма, Триллер, WEB-DLRip 1080p] 2 x MVO (TVShows, RuDub) pb.wtf

Среди акул через торрент pb.wtf

Раздают: 2 [ 0 KB/s ]
Размер: 4.53 GB | Добавлен: 1 мес. 18 д. назад | Торрент скачан:41 раз
Смотреть онлайн Среди акул | Скачать    Ребята, помогите собрать деньги на оплату серверов!!!

26-06-2022 05:01 Среди акул Скачать торрент  

Среди акул / Swimming with Sharks
  • Год выпуска: 2022
  • Страна: США
  • Студия:Lionsgate Television, Lionsgate, Debut Content
  • Жанр: Драма, Триллер
  • Продолжительность: ~ 00:25:00 (Серия)
  • Перевод:
    Профессиональный многоголосый [TVShows]
    Профессиональный многоголосый [RuDub]
    Режиссер: Такер Гейтс, Крис Коулз
  • В ролях:
    Дайан Крюгер, Дональд Сазерленд, Кэтлин Робертсон, Томас Деккер, Кирнан Шипка, Эрика Александр, Райан О’Нан, Финн Джонс, Росс Батлер, Эдриан Беллани
  • Описание:
    Сюжет строится вокруг Джойс, главы крупной киностудии, где чуть ли не каждый представитель коллектива - искусный манипулятор и интриган. Некоторые же, обделенные вышеназванными чертами, просто негодяи, которые готовы самыми грязными способами добиваться успехов и использовать более скромных и миролюбивых персонажей ради собственной выгоды. Помощница Босса Лу, роль которой играет Шипка, выглядит беззащитной. Джойс, которую отыгрывает Крюгер, не прочь провести пару-тройку репрессий за неповиновении или перегибание палки в ходе работы в киностудии. Лу же, в свою очередь, очень быстро учится тому, что видит. Им милой и приятной юной особы вскоре она превратится в настоящее воплощение зла, которое будет нести тьму в этот мир и в свою рабочую сферу в частности.
  • Рейтинг:

    rating


  • Качество: WEB-DLRip 1080p
  • Формат: :MKV
  • Видео кодек: AVC
  • Аудио кодек: AC3, AAC
  • Видео: 3635 Кбит/сек, 1920*1080 (16:9), в 23,976 (24000/1001) кадра/сек, AVC
  • Аудио №1: Русский 224 Кбит/сек, 48,0 КГц, 16 бит, 2 канала, AC-3|[TVShows]|
  • Аудио №2: Русский 192 Кбит/сек, 48,0 КГц, 2 канала, AAC LC|[RuDub]|
  • Аудио №3: Английский 384 Кбит/сек, 48,0 КГц, 16 бит, 6 каналов, AC-3
    Общее
    Уникальный идентификатор : 328680066603904984639137216457152595564 (0xF7457A6DE87C0F4EAC0824AE1387066C)
    Полное имя : G:\Среди акул (Swimming with Sharks) Сезон 1\Среди акул - Swimming with Sharks.S01E01.WEB-DL 1080p.(2022) TVShows RuDub.mkv
    Формат : Matroska
    Версия формата : Version 4
    Размер файла : 839 Мбайт
    Продолжительность : 26 м. 26 с.
    Режим общего битрейта : Переменный
    Общий поток : 4435 Кбит/сек
    Дата кодирования : UTC 2022-06-26 04:11:43
    Программа кодирования : mkvmerge v67.0.0 ('Under Stars') 64-bit
    Библиотека кодирования : libebml v1.4.2 + libmatroska v1.6.4

    Видео
    Идентификатор : 1
    Формат : AVC
    Формат/Информация : Advanced Video Codec
    Профиль формата : [email protected]
    Настройки формата : CABAC / 3 Ref Frames
    Параметр CABAC формата : Да
    Параметр RefFrames формата : 3 кадра
    Идентификатор кодека : V_MPEG4/ISO/AVC
    Продолжительность : 26 м. 26 с.
    Вид битрейта : Переменный
    Битрейт : 3635 Кбит/сек
    Максимальный битрейт : 5495 Кбит/сек
    Ширина : 1920 пикселей
    Высота : 1080 пикселей
    Соотношение сторон : 16:9
    Режим частоты кадров : Постоянный
    Частота кадров : 23,976 (24000/1001) кадра/сек
    Цветовое пространство : YUV
    Субдискретизация насыщенности : 4:2:0
    Битовая глубина : 8 бит
    Тип развёртки : Прогрессивная
    Бит/(Пиксели*Кадры) : 0.073
    Размер потока : 687 Мбайт (82%)
    Default : Да
    Forced : Нет
    Цветовой диапазон : Limited
    Основные цвета : BT.709
    Коэффициенты матрицы : BT.709

    Аудио #1
    Идентификатор : 2
    Формат : AC-3
    Формат/Информация : Audio Coding 3
    Коммерческое название : Dolby Digital
    Идентификатор кодека : A_AC3
    Продолжительность : 26 м. 26 с.
    Вид битрейта : Постоянный
    Битрейт : 224 Кбит/сек
    Каналы : 2 канала
    ChannelLayout : L R
    Частота : 48,0 КГц
    Частота кадров : 31,250 кадров/сек (1536 SPF)
    Битовая глубина : 16 бит
    Метод сжатия : С потерями
    Задержка видео : 27 мс.
    Размер потока : 42,4 Мбайт (5%)
    Заголовок : TVShows
    Язык : Russian
    ServiceKind/String : Complete Main
    Default : Да
    Forced : Нет

    Аудио #2
    Идентификатор : 3
    Формат : AAC LC
    Формат/Информация : Advanced Audio Codec Low Complexity
    Идентификатор кодека : A_AAC-2
    Продолжительность : 26 м. 26 с.
    Битрейт : 192 Кбит/сек
    Каналы : 2 канала
    ChannelLayout : L R
    Частота : 48,0 КГц
    Частота кадров : 46,875 кадров/сек (1024 SPF)
    Метод сжатия : С потерями
    Размер потока : 35,8 Мбайт (4%)
    Заголовок : RuDub
    Язык : Russian
    Default : Нет
    Forced : Нет

    Аудио #3
    Идентификатор : 4
    Формат : AC-3
    Формат/Информация : Audio Coding 3
    Коммерческое название : Dolby Digital
    Идентификатор кодека : A_AC3
    Продолжительность : 26 м. 26 с.
    Вид битрейта : Постоянный
    Битрейт : 384 Кбит/сек
    Каналы : 6 каналов
    ChannelLayout : L R C LFE Ls Rs
    Частота : 48,0 КГц
    Частота кадров : 31,250 кадров/сек (1536 SPF)
    Битовая глубина : 16 бит
    Метод сжатия : С потерями
    Размер потока : 72,6 Мбайт (9%)
    Язык : English
    ServiceKind/String : Complete Main
    Default : Нет
    Forced : Нет
    Внимание! Раздача ведётся путём добавления новых серий; при каждом добавлении создаётся новый торрент. Чтобы начать докачку новой серии, пользователям необходимо сделать следующее:
    (1) остановить скачивание,
    (2) удалить старый торрент у себя из клиента (старые серии удалять не надо),
    (3) скачать новый торрент и запустить его у себя в клиенте вместо старого, при этом указать клиенту путь в старую папку куда и должно происходить скачивание новых серий.

    Ваш клиент при этом должен произвести хеширование (проверку) старой папки (если не производит сам - помогите ему сделать это), и будет докачивать только те серии которых у вас ещё нет. Старые серии при этом не удаляются, а продолжают раздаваться!

    Eсли вы уже удалили старые серии, то предотвратить повторную закачку старых серий можно, отжав галочку в соответствующих местах при запуске нового торрента. По возможности, желательно не удалять старые серии как можно дольше чтобы релизёр не столько продолжал раздавать старые серии, а смог сконцентрироваться на новых.



    Скриншоты:
    скриншот   скриншот   скриншот   скриншот   скриншот   скриншот   скриншот   
    скриншот  
    pb.wtf



  • Скачать Среди акул через торрент https://i5.imageban.ru/out/2022/06/26/58b49d3ab664d8260fe133a0a737a735.jpg Скачать, смотреть онлайн Среди акул бесплантно в хорошем качестве Описание: Сюжет строится вокруг Джойс, главы крупной киностудии, где чуть ли не каждый представитель коллектива - искусный манипулятор и ... 5 10 1
    Торрент: Зарегистрирован [2022-06-26 05:01] · скачан: 41 раз
    Статус: √ проверено
    Размер: 4.53 GB
    Как cкачать? Как скачать Среди акул через торрент | UTorrent

    28-11-2019 20:33  

    Отключить вcю реклaмy на сайте

      Дорогой пользователь! Огромная просьба, поблагодарите релизера, оцените раздачу и оставьте свои комментарий, если Вы скачали Среди акул через торрент бесплатно!
      Комментировать посты могут только пользователи прошедшие не сложную регистрацию
      Показать сообщения:    

      Среди акул через торрент
      Скачать бесплатно Среди акул
      Среди акул скачать торрент
      Среди акул смотреть онлайн
      Cкачать фильм Среди акул бесплатно
      Среди акул скачать торрент в хорошем качестве
      Среди акул смотреть онлайн бесплатно в хорошем качестве


      Вы не можете начинать темы
      Вы не можете отвечать на сообщения
      Вы не можете редактировать свои сообщения
      Вы не можете удалять свои сообщения
      Вы не можете голосовать в опросах
      Вы не можете прикреплять файлы к сообщениям
      Вы можете скачивать файлы