Всегда рабочее зеркало без VPN и Proxy просто перед .vidak.icu напиши любое слово или цифру, Пример http://7f9v.vidak.icu

MVO

MVO

1 сезон

1

1 сезон

iTunes

1 сезон

13

1 сезон

Deluxe

pack

Рекомендуем

Repack

30

ВАЖНО

RePack

MK11

RePack

jed

RePack

fifa19

RePack

RDR2

RePack

NEED FOR SPEED™ PAYBACK

Кинопоиск HD

6 сезон

 Острые козырьки 6 сезон

Все сериалы

все сериалы на PB.wtf

RePack

FAR CRY 5
  
Magnet ссылка

Миссия: Аметист / Сезон: 1 / Серия: 1-8 из 8 (Антон Борматов) [2021, Шпионский детектив, WEBRip] pb.wtf

Миссия: Аметист через торрент pb.wtf

Раздают: 2 [ 0 KB/s ]
Размер: 4.96 GB | Добавлен: 26 д. назад | Торрент скачан:48 раз
Смотреть онлайн Миссия: Аметист | Скачать    Ребята, помогите собрать деньги на оплату серверов!!!

26-06-2022 18:43 Миссия: Аметист Скачать торрент  

Миссия: Аметист
Год выпуска: 2021
Страна: Россия
Выпущено: COSMOS studio по заказу АО «Первый канал»
Жанр: Шпионский детектив
Продолжительность: ~ 00:53:00 серия
Субтитры: отсутствуют

Режиссер: Антон Борматов



В ролях: Агния Дитковските, Александр Устюгов, Сергей Чонишвили, Юрий Беляев, Николай Мачульский, Надежда Борисова, Виктор Тереля, Пьер Бурель, Антон Филипенко, Алексей Матошин, Алексей Розин, Анастасия Микульчина, Джонатан Солвей, Стасс Классен, Ричард Уилсон (II), Даниэле Галеа, Артур Ваха, Марк-Малик Мурашкин, Григорий Зельцер, Григорий Данцигер, Сергей Внуков

Описание: Службе внешней разведки РФ становится известно, что некий сотрудник ЦРУ, негласно действуя по указанию теневого американского альянса, разворачивает многоходовую операцию с целью полной дискредитации России на мировой арене. Предотвращение диверсии поручено «спящему агенту» - российской девушке в Италии, поскольку теневой альянс имеет прямые связи с мафией. История развивается в наши дни параллельно в Италии и России. Удастся ли хрупкой девушке предотвратить глобальный конфликт?..

Качество: WEBRip
Формат: AVI

Видео: XviD, 1600 Кбит/с, 720x320, 25 кадр/с
Аудио: 48.0 kHz, AC3 Dolby Digital, 2/0 (L,R) ch, ~ 192 kbps

General
Complete name : E:\Миссия. Аметист.2021.WEBRip.Files-x\01. Миссия. Аметист.2021.WEBRip.Files-x.avi
Format : AVI
Format/Info : Audio Video Interleave
File size : 667 MiB
Duration : 52 min 17 s
Overall bit rate : 1 783 kb/s
Writing application : VirtualDubMod 1.5.10.3 | www.virtualdub-fr.org || (build 2550/release)
Writing library : VirtualDubMod build 2550/release

Video
ID : 0
Format : MPEG-4 Visual
Format profile : Advanced [email protected]
Format settings : BVOP1 / Custom Matrix
Format settings, BVOP : 1
Format settings, QPel : No
Format settings, GMC : No warppoints
Format settings, Matrix : Custom
Codec ID : XVID
Codec ID/Hint : XviD
Duration : 52 min 17 s
Bit rate : 1 581 kb/s
Width : 720 pixels
Height : 320 pixels
Display aspect ratio : 2.25:1
Frame rate : 25.000 FPS
Color space : YUV
Chroma subsampling : 4:2:0
Bit depth : 8 bits
Scan type : Progressive
Compression mode : Lossy
Bits/(Pixel*Frame) : 0.274
Stream size : 591 MiB (89%)
Writing library : XviD 73

Audio
ID : 1
Format : AC-3
Format/Info : Audio Coding 3
Commercial name : Dolby Digital
Codec ID : 2000
Duration : 52 min 17 s
Bit rate mode : Constant
Bit rate : 192 kb/s
Channel(s) : 2 channels
Channel layout : L R
Sampling rate : 48.0 kHz
Frame rate : 31.250 FPS (1536 SPF)
Compression mode : Lossy
Stream size : 71.8 MiB (11%)
Alignment : Split across interleaves
Interleave, duration : 40 ms (1.00 video frame)
Interleave, preload duratio : 500 ms
Service kind : Complete Main

Раздача ведётся путём добавления новых серий, при каждом добавлении создаётся новый торрент. Чтобы начать докачку новой серии, пользователям необходимо сделать следующее:
- Остановить скачивание.
- Удалить старый торрент у себя из клиента (старые серии удалять не надо).
- Скачать новый торрент и запустить его у себя в клиенте вместо старого, при этом указать клиенту путь в старую папку куда и должно происходить скачивание новых серий.
Ваш клиент при этом должен произвести хеширование (проверку) старой папки (если не производит сам - помогите ему сделать это), и будет докачивать только те серии которых у вас ещё нет. Старые серии при этом не удаляются, а продолжают раздаваться!
pb.wtf



Скачать Миссия: Аметист через торрент https://i120.fastpic.org/big/2022/0626/85/400f987c486c766317133875c3151385.jpg Скачать, смотреть онлайн Миссия: Аметист бесплантно в хорошем качестве Описание: Службе внешней разведки РФ становится известно, что некий сотрудник ЦРУ, негласно действуя по указанию теневого американского ... 6.4 10 10
Торрент: Зарегистрирован [2022-07-12 09:09] · скачан: 48 раз
Статус: √ проверено
Размер: 4.96 GB
Как cкачать? Как скачать Миссия: Аметист через торрент | UTorrent

% Раздел Тема Автор DL S | L
Наши сериалы [ 11.3 GB ] Миссия: Аметист / Сезон: 1 / Серия: 1-8 из 8 [2021 Шпионский WEBRip 1080p] bober100 Скачать
7 | 1
Наши сериалы [ 4.99 GB ] Миссия: Аметист / Сезон: 1 / Серия: 1-8 из 8 [2021 Шпионский WEBRip-AVC] bober100 Скачать
3 | 0
Наши сериалы [ 5.23 GB ] Миссия: Аметист / Сезон: 1 / Серия: 1-8 из 8 [2021 Шпионский SATRip] bober100 Скачать
13 | 0

28-11-2019 20:33  

Отключить вcю реклaмy на сайте

    Дорогой пользователь! Огромная просьба, поблагодарите релизера, оцените раздачу и оставьте свои комментарий, если Вы скачали Миссия: Аметист через торрент бесплатно!
    Комментировать посты могут только пользователи прошедшие не сложную регистрацию
    Показать сообщения:    

    Миссия: Аметист через торрент
    Скачать бесплатно Миссия: Аметист
    Миссия: Аметист скачать торрент
    Миссия: Аметист смотреть онлайн
    Cкачать фильм Миссия: Аметист бесплатно
    Миссия: Аметист скачать торрент в хорошем качестве
    Миссия: Аметист смотреть онлайн бесплатно в хорошем качестве


    Вы не можете начинать темы
    Вы не можете отвечать на сообщения
    Вы не можете редактировать свои сообщения
    Вы не можете удалять свои сообщения
    Вы не можете голосовать в опросах
    Вы не можете прикреплять файлы к сообщениям
    Вы можете скачивать файлы