Всегда рабочее зеркало без VPN и Proxy просто перед .vidak.icu напиши любое слово или цифру, Пример http://t21r.vidak.icu

MVO

MVO

1 сезон

1

1 сезон

iTunes

1 сезон

13

1 сезон

Deluxe

pack

Рекомендуем

Repack

30

ВАЖНО

RePack

MK11

RePack

jed

RePack

fifa19

RePack

RDR2

RePack

NEED FOR SPEED™ PAYBACK

Кинопоиск HD

6 сезон

 Острые козырьки 6 сезон

Все сериалы

все сериалы на PB.wtf

RePack

FAR CRY 5
  
Magnet ссылка

Миссия: Аметист / Сезон: 1 / Серия: 1-8 из 8 (Антон Борматов) [2021, Шпионский детектив, WEBRip 1080p] pb.wtf

Миссия: Аметист через торрент pb.wtf

Раздают: 3 [ 0 KB/s ]
Размер: 11.3 GB | Добавлен: 30 д. назад | Торрент скачан:95 раз
Смотреть онлайн Миссия: Аметист | Скачать    Ребята, помогите собрать деньги на оплату серверов!!!

26-06-2022 18:43 Миссия: Аметист Скачать торрент  

Миссия: Аметист
Год выпуска: 2021
Страна: Россия
Выпущено: COSMOS studio по заказу АО «Первый канал»
Жанр: Шпионский детектив
Продолжительность: ~ 00:53:00 серия
Субтитры: отсутствуют

Режиссер: Антон Борматов



В ролях: Агния Дитковските, Александр Устюгов, Сергей Чонишвили, Юрий Беляев, Николай Мачульский, Надежда Борисова, Виктор Тереля, Пьер Бурель, Антон Филипенко, Алексей Матошин, Алексей Розин, Анастасия Микульчина, Джонатан Солвей, Стасс Классен, Ричард Уилсон (II), Даниэле Галеа, Артур Ваха, Марк-Малик Мурашкин, Григорий Зельцер, Григорий Данцигер, Сергей Внуков

Описание: Службе внешней разведки РФ становится известно, что некий сотрудник ЦРУ, негласно действуя по указанию теневого американского альянса, разворачивает многоходовую операцию с целью полной дискредитации России на мировой арене. Предотвращение диверсии поручено «спящему агенту» - российской девушке в Италии, поскольку теневой альянс имеет прямые связи с мафией. История развивается в наши дни параллельно в Италии и России. Удастся ли хрупкой девушке предотвратить глобальный конфликт?..

Качество: WEBRip 1080p
Формат: MKV

Видео: MPEG-4 AVC, ~ 4800 Кбит/с, 1920x1080, 25 кадр/с
Аудио: 48.0 kHz, AC3 Dolby Digital, 2/0 (L,R) ch, ~ 192 kbps

General
Unique ID : 220323414456545129775234663665974239889 (0xA5C0BF02B69397EDA1DD5E83D371E291)
Complete name : E:\Миссия. Аметист.2021.WEBRip 1080p.Files-x\01. Миссия. Аметист.2021.WEBRip 1080p.Files-x.mkv
Format : Matroska
Format version : Version 2
File size : 1.82 GiB
Duration : 52 min 17 s
Overall bit rate mode : Constant
Overall bit rate : 4 993 kb/s
Encoded date : UTC 2022-06-26 15:04:07
Writing application : mkvmerge v5.8.0 ('No Sleep / Pillow') built on Sep 2 2012 15:37:04
Writing library : libebml v1.2.3 + libmatroska v1.3.0

Video
ID : 1
Format : AVC
Format/Info : Advanced Video Codec
Format profile : [email protected]
Format settings : CABAC / 4 Ref Frames
Format settings, CABAC : Yes
Format settings, Reference : 4 frames
Codec ID : V_MPEG4/ISO/AVC
Duration : 52 min 17 s
Bit rate mode : Constant
Bit rate : 4 800 kb/s
Width : 1 920 pixels
Height : 1 080 pixels
Display aspect ratio : 16:9
Frame rate mode : Constant
Frame rate : 25.000 FPS
Color space : YUV
Chroma subsampling : 4:2:0
Bit depth : 8 bits
Scan type : Progressive
Bits/(Pixel*Frame) : 0.093
Stream size : 1.72 GiB (94%)
Writing library : x264 core 161
Encoding settings : cabac=1 / ref=2 / deblock=1:0:0 / analyse=0x3:0x113 / me=hex / subme=6 / psy=1 / psy_rd=1.00:0.00 / mixed_ref=1 / me_range=16 / chroma_me=1 / trellis=1 / 8x8dct=1 / cqm=0 / deadzone=21,11 / fast_pskip=1 / chroma_qp_offset=-2 / threads=24 / lookahead_threads=4 / sliced_threads=0 / nr=0 / decimate=1 / interlaced=0 / bluray_compat=0 / constrained_intra=0 / bframes=3 / b_pyramid=2 / b_adapt=1 / b_bias=0 / direct=1 / weightb=1 / open_gop=0 / weightp=1 / keyint=250 / keyint_min=25 / scenecut=0 / intra_refresh=0 / rc_lookahead=30 / rc=cbr / mbtree=1 / bitrate=4800 / ratetol=1.0 / qcomp=0.60 / qpmin=0 / qpmax=69 / qpstep=4 / vbv_maxrate=4800 / vbv_bufsize=1200 / nal_hrd=cbr / filler=1 / ip_ratio=1.40 / aq=1:1.00
Language : Russian
Default : Yes
Forced : No
Color range : Limited
Color primaries : BT.709
Transfer characteristics : BT.709
Matrix coefficients : BT.709

Audio
ID : 2
Format : AC-3
Format/Info : Audio Coding 3
Commercial name : Dolby Digital
Codec ID : A_AC3
Duration : 52 min 17 s
Bit rate mode : Constant
Bit rate : 192 kb/s
Channel(s) : 2 channels
Channel layout : L R
Sampling rate : 48.0 kHz
Frame rate : 31.250 FPS (1536 SPF)
Compression mode : Lossy
Stream size : 71.8 MiB (4%)
Language : Russian
Service kind : Complete Main
Default : Yes
Forced : No

Раздача ведётся путём добавления новых серий, при каждом добавлении создаётся новый торрент. Чтобы начать докачку новой серии, пользователям необходимо сделать следующее:
- Остановить скачивание.
- Удалить старый торрент у себя из клиента (старые серии удалять не надо).
- Скачать новый торрент и запустить его у себя в клиенте вместо старого, при этом указать клиенту путь в старую папку куда и должно происходить скачивание новых серий.
Ваш клиент при этом должен произвести хеширование (проверку) старой папки (если не производит сам - помогите ему сделать это), и будет докачивать только те серии которых у вас ещё нет. Старые серии при этом не удаляются, а продолжают раздаваться!
pb.wtf



Скачать Миссия: Аметист через торрент https://i120.fastpic.org/thumb/2022/0627/c8/542eda300f3b8ad96a48dfcfcd0923c8.jpeg Скачать, смотреть онлайн Миссия: Аметист бесплантно в хорошем качестве Описание: Службе внешней разведки РФ становится известно, что некий сотрудник ЦРУ, негласно действуя по указанию теневого американского ... 7 10 15
Торрент: Зарегистрирован [2022-07-12 09:10] · скачан: 95 раз
Статус: √ проверено
Размер: 11.3 GB
Как cкачать? Как скачать Миссия: Аметист через торрент | UTorrent

% Раздел Тема Автор DL S | L
Наши сериалы [ 4.99 GB ] Миссия: Аметист / Сезон: 1 / Серия: 1-8 из 8 [2021 Шпионский WEBRip-AVC] bober100 Скачать
2 | 0
Наши сериалы [ 5.23 GB ] Миссия: Аметист / Сезон: 1 / Серия: 1-8 из 8 [2021 Шпионский SATRip] bober100 Скачать
10 | 0
Наши сериалы [ 4.96 GB ] Миссия: Аметист / Сезон: 1 / Серия: 1-8 из 8 [2021 Шпионский WEBRip] bober100 Скачать
3 | 1

28-11-2019 20:33  

Отключить вcю реклaмy на сайте

12-07-2022 15:01 Миссия: Аметист Скачать торрент  

pb.wtf



    Дорогой пользователь! Огромная просьба, поблагодарите релизера, оцените раздачу и оставьте свои комментарий, если Вы скачали Миссия: Аметист через торрент бесплатно!
    Комментировать посты могут только пользователи прошедшие не сложную регистрацию
    Показать сообщения:    

    Миссия: Аметист через торрент
    Скачать бесплатно Миссия: Аметист
    Миссия: Аметист скачать торрент
    Миссия: Аметист смотреть онлайн
    Cкачать фильм Миссия: Аметист бесплатно
    Миссия: Аметист скачать торрент в хорошем качестве
    Миссия: Аметист смотреть онлайн бесплатно в хорошем качестве


    Вы не можете начинать темы
    Вы не можете отвечать на сообщения
    Вы не можете редактировать свои сообщения
    Вы не можете удалять свои сообщения
    Вы не можете голосовать в опросах
    Вы не можете прикреплять файлы к сообщениям
    Вы можете скачивать файлы