Всегда рабочее зеркало без VPN и Proxy просто перед .vidak.icu напиши любое слово или цифру, Пример http://weyn.vidak.icu

MVO

MVO

1 сезон

1

1 сезон

iTunes

1 сезон

13

1 сезон

Deluxe

pack

Рекомендуем

Repack

30

ВАЖНО

RePack

MK11

RePack

jed

RePack

fifa19

RePack

RDR2

RePack

NEED FOR SPEED™ PAYBACK

Кинопоиск HD

6 сезон

 Острые козырьки 6 сезон

Все сериалы

все сериалы на PB.wtf

RePack

FAR CRY 5
  
Magnet ссылка

Мир Дикого Запада / Westworld / Сезон: 4 / Серии: 1-6 из 8 (Джонатан Нолан, Джонни Кэмпбелл, Ричард Дж. Льюис) [2022, Фантастика, драма, детектив, вестерн, WEB-DLRip] MVO [HDrezka Studio] pb.wtf

Мир Дикого Запада через торрент pb.wtf

Качают: 1 [ 0 KB/s ]
Размер: 3.9 GB | Добавлен: 10 д. назад | Торрент скачан:10 раз
Смотреть онлайн Мир Дикого Запада | Скачать    Ребята, помогите собрать деньги на оплату серверов!!!

28-06-2022 10:53 Мир Дикого Запада Скачать торрент  

Мир Дикого запада | Westworld
«Здесь начинается жизнь»
Год выпуска: 2022
Страна: США
Выпущено: Bad Robot, Jerry Weintraub Productions, Kilter Films, Warner Bros. Television
Жанр: Фантастика, драма, детектив, вестерн
Продолжительность: ~ 00:55:00
Перевод: Профессиональный (многоголосый) | HDrezka Studio
Субтитры: Русские (форсированные hardsub)

Режиссер: Джонатан Нолан, Джонни Кэмпбелл, Ричард Дж. Льюис

rating

В ролях: Тандиве Ньютон, Джеффри Райт, Эд Харрис, Эван Рэйчел Вуд, Джеймс Марсден, Тесса Томпсон, Люк Хемсворт, Анджела Сарафян, Энтони Хопкинс, Аарон По

Описание: Действия данного захватывающего сериала проходят в недалёком будущем. Здесь очень популярным видом развлечений являются специальные роботизированные парки отдыха на множество тематик. Нынешние технологии без труда позволяют имитировать популярные времена и исторические эпохи. Каждый желающий посетитель такого парка может на себе ощутить ту древнюю царившую атмосферу и полностью погрузиться во времена своих предков. Достаточно просто выбрать интересующую тебя эпоху и путешествие начинается. В таких парках всё работает исключительно на самых передовых технологиях, а статистами являются андроиды, которых практически невозможно отличить от настоящих, живых людей. Но в один прекрасный момент в программном обеспечении парка происходит сбой и механические экспонаты восстают против посетителей...

Качество: WEB-DLRip
Формат: AVI

Видео: XviD, 720x400 (16:9), 23,976 fps, ~1500 kbps
Аудио Rus: AC-3, 48 kHz, 2 ch, 192 kbps
скриншот  скриншот  скриншот  скриншот  скриншот  скриншот  

Полное имя : Westworld.S04.WEBRip.Rus.HDRezka\Westworld.S04E01.WEBRip.Rus.HDRezka.JuSSiKa.avi
Формат : AVI
Формат/Информация : Audio Video Interleave
Размер файла : 660 Мбайт
Продолжительность : 54 м. 12 с.
Общий поток : 1703 Кбит/сек
Программа кодирования : VirtualDubMod 1.5.10.3 (build 2550/release)
Библиотека кодирования : VirtualDubMod build 2550/release

Видео
Идентификатор : 0
Формат : MPEG-4 Visual
Профиль формата : Advanced [email protected]
Настройки формата : BVOP1
Параметр BVOP формата : 1
Параметр QPel формата : Нет
Параметр GMC формата : Без точки перехода
Параметр матрицы формата : Default (H.263)
Идентификатор кодека : XVID
Идентификатор кодека/Подсказка : XviD
Продолжительность : 54 м. 11 с.
Битрейт : 1501 Кбит/сек
Ширина : 720 пикселей
Высота : 400 пикселей
Соотношение сторон : 16:9
Частота кадров : 23,976 (24000/1001) кадра/сек
Цветовое пространство : YUV
Субдискретизация насыщенности : 4:2:0
Битовая глубина : 8 бит
Тип развёртки : Прогрессивная
Метод сжатия : С потерями
Бит/(Пиксели*Кадры) : 0.217
Размер потока : 582 Мбайт (88%)
Библиотека кодирования : XviD 1.2.1 (UTC 2008-12-04)

Аудио
Идентификатор : 1
Формат : AC-3
Формат/Информация : Audio Coding 3
Параметр Endianness формата : Big
Идентификатор кодека : 2000
Продолжительность : 54 м. 12 с.
Вид битрейта : Постоянный
Битрейт : 192 Кбит/сек
Каналы : 2 канала
Расположение каналов : Front: L R
Частота : 48,0 КГц
Частота кадров : 31,250 кадров/сек (1536 SPF)
Битовая глубина : 16 бит
Метод сжатия : С потерями
Размер потока : 74,4 Мбайт (11%)
Выравнивание : Разделение по промежуткам
Продолжительность промежутка : 42 мс. (1,00 видеокадр)
Время предзагрузки промежутка : 500 мс.
ServiceKind/String : Complete Main

Когда раздача ведётся путём добавления новых серий, при каждом добавлении создётся новый торрент. Чтобы начать докачку новой серии, пользователям необходимо сделать следующее:
(1) остановить скачивание,
(2) удалить старый торрент у себя из клиента (старые серии удалять не надо),
(3) скачать новый торрент и запустить его у себя в клиенте вместо старого, при этом указать клиенту путь в старую папку, куда и должно происходить скачивание новых серий.
Ваш клиент при этом должен произвести хеширование (проверку) старой папки (если не производит сам - помогите ему сделать это), и будет докачивать только те серии, которых у вас ещё нет. Старые серии при этом не удаляются, а продолжают раздаваться!
Eсли вы уже удалили старые серии, то предотвратить повторную закачку старых серий можно, отжав галочку в соответсвующих местах при запуске нового торрента. По возможности, желательно не удалять старые серии как можно дольше, чтобы релизёр не столько продолжал раздавать старые серии, а смог сконцентрироваться на новых.

pb.wtf



Скачать Мир Дикого Запада через торрент https://i1.imageban.ru/out/2020/03/18/a186446ea87e2eb259bbc38512428e51.png Скачать, смотреть онлайн Мир Дикого Запада бесплантно в хорошем качестве Описание: Действия данного захватывающего сериала проходят в недалёком будущем. Здесь очень популярным видом развлечений являются ... 8.3 10 6
Торрент: Зарегистрирован [2022-08-02 03:25] · скачан: 10 раз
Статус: √ проверено
Размер: 3.9 GB
Как cкачать? Как скачать Мир Дикого Запада через торрент | UTorrent

% Раздел Тема Автор DL S | L
Зарубежные сериалы [ 4.8 GB ] Мир Дикого Запада / Westworld / Сезон: 4 / Серии: 1-6 из 8 [2022 WEB-DLRip] MVO [AlexFilm] bober100 Скачать
2 | 0

28-11-2019 20:33  

Отключить вcю реклaмy на сайте

    Дорогой пользователь! Огромная просьба, поблагодарите релизера, оцените раздачу и оставьте свои комментарий, если Вы скачали Мир Дикого Запада через торрент бесплатно!
    Комментировать посты могут только пользователи прошедшие не сложную регистрацию
    Показать сообщения:    

    Мир Дикого Запада через торрент
    Скачать бесплатно Мир Дикого Запада
    Мир Дикого Запада скачать торрент
    Мир Дикого Запада смотреть онлайн
    Cкачать фильм Мир Дикого Запада бесплатно
    Мир Дикого Запада скачать торрент в хорошем качестве
    Мир Дикого Запада смотреть онлайн бесплатно в хорошем качестве


    Вы не можете начинать темы
    Вы не можете отвечать на сообщения
    Вы не можете редактировать свои сообщения
    Вы не можете удалять свои сообщения
    Вы не можете голосовать в опросах
    Вы не можете прикреплять файлы к сообщениям
    Вы можете скачивать файлы