Всегда рабочее зеркало без VPN и Proxy просто перед .vidak.icu напиши любое слово или цифру, Пример http://2zyb.vidak.icu

MVO

MVO

1 сезон

1

1 сезон

iTunes

1 сезон

13

1 сезон

Deluxe

pack

Рекомендуем

Repack

30

ВАЖНО

RePack

MK11

RePack

jed

RePack

fifa19

RePack

RDR2

RePack

NEED FOR SPEED™ PAYBACK

Кинопоиск HD

6 сезон

 Острые козырьки 6 сезон

Все сериалы

все сериалы на PB.wtf

RePack

FAR CRY 5
  
Magnet ссылка

Человек из Торонто / The Man from Toronto (Патрик Хьюз) [2022, Боевик, триллер, комедия, WEBRip 1080p] 2xMVO [Jaskier, TVShows] pb.wtf

Человек из Торонто через торрент pb.wtf

Раздают: 35 [ 2 MB/s ] Качают: 2 [ 0 KB/s ]
Размер: 13.01 GB | Добавлен: 1 мес. 9 д. назад | Торрент скачан:475 раз
Смотреть онлайн Человек из Торонто | Скачать    Ребята, помогите собрать деньги на оплату серверов!!!

28-06-2022 11:50 Человек из Торонто Скачать торрент  

Человек из Торонто
The Man from Toronto

Год выпуска: 2022
Страна: США
Студия: Bron Studios, Columbia Pictures Corporation, Escape Artists, Hartbeat Productions, Sony Pictures Entertainment (SPE)
Жанр: Боевик, триллер, комедия
Продолжительность: 01:52:02
Перевод(ы):
#1: Профессиональный многоголосый | Jaskier
#2: Профессиональный многоголосый | TVShows
Субтитры: Русские (Full), украинские (Full), английские

Режиссер: Патрик Хьюз

rating

В ролях: Эллен Баркин, Кейли Куоко, Вуди Харрельсон, Кевин Харт, Лила Лорен, Жасмин Мэтьюз, Кейт Драммонд, Роб Арчер, Пирсон Фод, Томохиса Ямасита

Описание: Тедди, работая консультантом по продажам, уверенно двигался вдоль черной полосы своей жизни. Его словно преследовали разнообразные несчастья. Он не успевал отойти от одной неудачи, как тут же появлялась следующая. Последней каплей стало то, что ошибка онлайн сервиса Airbnb приводит героя фильма «Человек из Торонто» в квартиру, принадлежащую опасному киллеру. Не успел он прийти в себя, как все вокруг начали считать его преступником. На подсознательном уровне он понимал, что избежать новых неприятностей и проблем ему поможет безобидное притворство. И все бы хорошо, но в квартиру нагрянули представители правоохранительных органов. Вот так Тедди оказывается в местном отделении полиции. Чтобы не усугублять ситуацию ещё больше, парень решает во всем признаться. Тем временем у полицейских созревает гениальный план…

Качество: WEBRip 1080p
Формат: MKV

Видео: MPEG-4 AVC, 1920x808, 15.2 Mbit/s, 23.976 fps
Аудио #01: 48 kHz, AC3, 5.1, 448 Kbps | Профессиональный многоголосый | Jaskier | RUS |
Аудио #02: 48 kHz, AC3, 2.0, 192 Kbps | Профессиональный многоголосый | TVShows | RUS |
Аудио #03: 48 kHz, E-AC3+Atmos, 5.1, 768 Kbps | Оригинал | ENG |
скриншот  скриншот  скриншот  скриншот  скриншот  скриншот  

General
Unique ID : 239171988129054904900742747499290076436 (0xB3EED970F1A51986623613BAD38EA514)
Complete name : D:\Video1\The.Man.from.Toronto.2022.NF.WEBRip.1080p.seleZen.mkv
Format : Matroska
Format version : Version 4
File size : 13.0 GiB
Duration : 1 h 52 min
Overall bit rate mode : Variable
Overall bit rate : 16.6 Mb/s
Movie name : The Man from Toronto 2022 from seleZen
Encoded date : UTC 2022-06-28 14:06:26
Writing application : mkvmerge v59.0.0 ('Shining Star') 64-bit
Writing library : libebml v1.4.2 + libmatroska v1.6.4

Video
ID : 1
Format : AVC
Format/Info : Advanced Video Codec
Format profile : [email protected]
Format settings : CABAC / 4 Ref Frames
Format settings, CABAC : Yes
Format settings, Reference : 4 frames
Codec ID : V_MPEG4/ISO/AVC
Duration : 1 h 52 min
Bit rate mode : Variable
Bit rate : 15.2 Mb/s
Maximum bit rate : 40.0 Mb/s
Width : 1 920 pixels
Height : 808 pixels
Display aspect ratio : 2.40:1
Frame rate mode : Constant
Frame rate : 23.976 (24000/1001) FPS
Color space : YUV
Chroma subsampling : 4:2:0
Bit depth : 8 bits
Scan type : Progressive
Bits/(Pixel*Frame) : 0.409
Stream size : 11.9 GiB (92%)
Language : English
Default : Yes
Forced : No
Color range : Limited
Color primaries : BT.709
Transfer characteristics : BT.709
Matrix coefficients : BT.709

Audio #1
ID : 2
Format : AC-3
Format/Info : Audio Coding 3
Commercial name : Dolby Digital
Codec ID : A_AC3
Duration : 1 h 52 min
Bit rate mode : Constant
Bit rate : 448 kb/s
Channel(s) : 6 channels
Channel layout : L R C LFE Ls Rs
Sampling rate : 48.0 kHz
Frame rate : 31.250 FPS (1536 SPF)
Compression mode : Lossy
Stream size : 359 MiB (3%)
Title : MVO [Jaskier]
Language : Russian
Service kind : Complete Main
Default : Yes
Forced : Yes

Audio #2
ID : 3
Format : AC-3
Format/Info : Audio Coding 3
Commercial name : Dolby Digital
Codec ID : A_AC3
Duration : 1 h 52 min
Bit rate mode : Constant
Bit rate : 192 kb/s
Channel(s) : 2 channels
Channel layout : L R
Sampling rate : 48.0 kHz
Frame rate : 31.250 FPS (1536 SPF)
Compression mode : Lossy
Stream size : 154 MiB (1%)
Title : MVO [TVShows]
Language : Russian
Service kind : Complete Main
Default : No
Forced : No

Audio #3
ID : 4
Format : E-AC-3 JOC
Format/Info : Enhanced AC-3 with Joint Object Coding
Commercial name : Dolby Digital Plus with Dolby Atmos
Codec ID : A_EAC3
Duration : 1 h 52 min
Bit rate mode : Constant
Bit rate : 768 kb/s
Channel(s) : 6 channels
Channel layout : L R C LFE Ls Rs
Sampling rate : 48.0 kHz
Frame rate : 31.250 FPS (1536 SPF)
Compression mode : Lossy
Stream size : 616 MiB (5%)
Title : Original
Language : English
Service kind : Complete Main
Default : No
Forced : No
Complexity index : 16
Number of dynamic objects : 15
Bed channel count : 1 channel
Bed channel configuration : LFE

Text #1
ID : 5
Format : UTF-8
Codec ID : S_TEXT/UTF8
Codec ID/Info : UTF-8 Plain Text
Duration : 1 h 48 min
Bit rate : 109 b/s
Count of elements : 1860
Stream size : 87.1 KiB (0%)
Title : Full
Language : Russian
Default : No
Forced : No

Text #2
ID : 6
Format : UTF-8
Codec ID : S_TEXT/UTF8
Codec ID/Info : UTF-8 Plain Text
Duration : 1 h 48 min
Bit rate : 109 b/s
Count of elements : 1878
Stream size : 86.9 KiB (0%)
Title : Full
Language : Ukrainian
Default : No
Forced : No

Text #3
ID : 7
Format : UTF-8
Codec ID : S_TEXT/UTF8
Codec ID/Info : UTF-8 Plain Text
Duration : 16 s 350 ms
Bit rate : 33 b/s
Count of elements : 4
Stream size : 68.0 Bytes (0%)
Title : Forced
Language : English
Default : No
Forced : No

Text #4
ID : 8
Format : UTF-8
Codec ID : S_TEXT/UTF8
Codec ID/Info : UTF-8 Plain Text
Duration : 1 h 44 min
Bit rate : 79 b/s
Count of elements : 1937
Stream size : 60.9 KiB (0%)
Title : Full
Language : English
Default : No
Forced : No

Text #5
ID : 9
Format : UTF-8
Codec ID : S_TEXT/UTF8
Codec ID/Info : UTF-8 Plain Text
Duration : 1 h 44 min
Bit rate : 90 b/s
Count of elements : 2283
Stream size : 69.5 KiB (0%)
Title : SDH
Language : English
Default : No
Forced : No

pb.wtf



Скачать Человек из Торонто через торрент https://i4.imageban.ru/out/2022/06/28/75036c22b2428ae8b8a21a611e26691b.jpg Скачать, смотреть онлайн Человек из Торонто бесплантно в хорошем качестве Описание: Тедди, работая консультантом по продажам, уверенно двигался вдоль черной полосы своей жизни. Его словно преследовали ... 9.8 10 13
Торрент: Зарегистрирован [2022-06-28 14:14] · скачан: 475 раз
Статус: √ проверено
Размер: 13.01 GB
Как cкачать? Как скачать Человек из Торонто через торрент | UTorrent

% Раздел Тема Автор DL S | L
Фильмы 2022 [DVDrip, WEB-DLRip, HDrip] (DUB, MVO) [ 1.46 GB ] Человек из Торонто / The Man from Toronto [2022 WEB-DLRip] MVO [Jaskier] bober100 Скачать
18 | 0
Фильмы 2022 [DVDrip, WEB-DLRip, HDrip] (DUB, MVO) [ 1.98 GB ] Человек из Торонто / The Man from Toronto [2022 WEB-DLRip-AVC] 2xMVO [Jaskier TVShows] bober100 Скачать
22 | 0
Фильмы с украинским озвучиванием [ 2.98 GB ] Человек из Торонто / Людина з Торонто / The Man from Toronto [2022 WEB-DL 1080p] DUB [UKR / Netflix] bober100 Скачать
6 | 1


Последний раз редактировалось: bober100 (2022-06-28 14:24), всего редактировалось 6 раз(а)

28-11-2019 20:33  

Отключить вcю реклaмy на сайте

28-06-2022 12:21 Человек из Торонто Скачать торрент  

Пародия/ремейк 1.5 шпиона?
кто смотрел?pb.wtf



28-06-2022 12:24 Человек из Торонто Скачать торрент  

h1n1 писал(а):

Пародия/ремейк 1.5 шпиона?
кто смотрел?

Впринципе можно и так сказать. Эдакий комедийный Джон Уикpb.wtf



28-06-2022 19:24 Человек из Торонто Скачать торрент  

В каком переводе лучше смотреть: Jaskier или TVShows?pb.wtf



01-07-2022 14:48 Человек из Торонто Скачать торрент  

Как же я не увидел гребаную букву N на постере, да и в описании ни слова нет что сию блевотину породила гниль-контора именуемая Netflix..

Я же зарекался не смотерть на экскрименты этой студии..
Меня нагло обманули..

Не смотрите этот отстой, даже 1,5 шпиона и те снято в гараздо интересном ключе, где еще хоть на скалу можно посмотреть..
Но этот высер... кровь из глазюков.. по другому не подобрать всю боль..pb.wtf





Последний раз редактировалось: h1n1 (2022-07-04 10:31), всего редактировалось 1 раз

03-07-2022 09:47 Человек из Торонто Скачать торрент  

у тех кто озвучивал явно проблемы с цифрами, додж 69 года упроно называют доджем 96 годаpb.wtf



    Дорогой пользователь! Огромная просьба, поблагодарите релизера, оцените раздачу и оставьте свои комментарий, если Вы скачали Человек из Торонто через торрент бесплатно!
    Комментировать посты могут только пользователи прошедшие не сложную регистрацию
    Показать сообщения:    

    Человек из Торонто через торрент
    Скачать бесплатно Человек из Торонто
    Человек из Торонто скачать торрент
    Человек из Торонто смотреть онлайн
    Cкачать фильм Человек из Торонто бесплатно
    Человек из Торонто скачать торрент в хорошем качестве
    Человек из Торонто смотреть онлайн бесплатно в хорошем качестве


    Вы не можете начинать темы
    Вы не можете отвечать на сообщения
    Вы не можете редактировать свои сообщения
    Вы не можете удалять свои сообщения
    Вы не можете голосовать в опросах
    Вы не можете прикреплять файлы к сообщениям
    Вы можете скачивать файлы