Всегда рабочее зеркало без VPN и Proxy просто перед .vidak.icu напиши любое слово или цифру, Пример http://hehq.vidak.icu

MVO

MVO

1 сезон

1

1 сезон

iTunes

1 сезон

13

1 сезон

Deluxe

pack

Рекомендуем

Repack

30

ВАЖНО

RePack

MK11

RePack

jed

RePack

fifa19

RePack

RDR2

RePack

NEED FOR SPEED™ PAYBACK

Кинопоиск HD

6 сезон

 Острые козырьки 6 сезон

Все сериалы

все сериалы на PB.wtf

RePack

FAR CRY 5
  
Magnet ссылка

Герой / Ghahreman / A Hero (Асгар Фархади) [2021, Триллер, драма, BD Remux 1080p] MVO [Кириллица / Кинопоиск HD] pb.wtf

Герой через торрент pb.wtf

Раздают: 1 [ 0 KB/s ]
Размер: 26.87 GB | Добавлен: 1 мес. 9 д. назад | Торрент скачан:23 раза
Смотреть онлайн Герой | Скачать    Ребята, помогите собрать деньги на оплату серверов!!!

28-06-2022 12:41 Герой Скачать торрент  

Герой
Ghahreman
A Hero

Год выпуска: 2021
Страна: Франция, Иран
Студия: Arte France Cinéma, Asghar Farhadi Productions, Centre national du cinéma et de l'image animée (CNC)
Жанр: Триллер, драма
Продолжительность: 02:08:49
Перевод: Профессиональный (многоголосый) | Кириллица | Кинопоиск HD
Субтитры: Русские (Full), английские

Режиссер: Асгар Фархади

rating

В ролях: Амир Джадиди, Мосен Танабанде, Сахар Голдаст, Фереште Садре Орафай, Эхсан Гударзи, Сарина Фархади, Мариам Шахдаэй, Алиреза Джахандиде, Фаррох Нурбахт, Мохаммад Агхебати

Описание: Рахим находится в тюрьме из-за непогашенного долга. Во время двухдневного отпуска он пытается убедить кредитора отозвать часть суммы. Но все идет не так, как планировалось. Новый фильм главного иранского режиссера современности Асгара Фархади. Судя по восторженным рецензиям критиков, очередной мастер-класс, как из житейской истории выжать непредсказуемый и неоднозначный триллер.

Качество: BD Remux 1080p
Формат: MKV

Видео: MPEG-4 AVC, 1920x800, 24.9 Mbit/s, 24.000 fps
Аудио #01: 48 kHz, AC3, 5.1, 448 Kbps | Профессиональный многоголосый | Кинопоиск HD | RUS |
Аудио #02: 48 kHz, E-AC3, 5.1, 448 Kbps | Профессиональный многоголосый | Кинопоиск HD | RUS |
Аудио #03: 48 kHz, DTS-HD MA, 5.1, 4054 Kbps | Оригинал | ITA |
скриншот  скриншот  скриншот  скриншот  скриншот  скриншот  

General
Unique ID: 70106850780129683234400021350124807786 (0x34BE169C4C3760A39F7DEA09E40AE66A)
Complete name: D:Video1Ghahreman.2021.BDREMUX.1080p.seleZen.mkv
Format: Matroska
Format version: Version 4
File size: 26.9 GiB
Duration: 2 h 8 min
Overall bit rate mode: Variable
Overall bit rate: 29.9 Mb/s
Movie name: Ghahreman 2021 from seleZen
Encoded date: UTC 2022-04-16 03:48:38
Writing application: mkvmerge v59.0.0 ('Shining Star') 64-bit
Writing library: libebml v1.4.2 + libmatroska v1.6.4

Video
ID: 1
Format: AVC
Format/Info: Advanced Video Codec
Format profile: [email protected]
Format settings: CABAC / 4 Ref Frames
Format settings, CABAC: Yes
Format settings, Reference: 4 frames
Codec ID: V_MPEG4/ISO/AVC
Duration: 2 h 8 min
Bit rate mode: Variable
Bit rate: 24.9 Mb/s
Maximum bit rate: 33.0 Mb/s
Width: 1 920 pixels
Height: 1 080 pixels
Display aspect ratio: 16:9
Frame rate mode: Constant
Frame rate: 24.000 FPS
Color space: YUV
Chroma subsampling: 4:2:0
Bit depth: 8 bits
Scan type: Progressive
Bits/(Pixel*Frame): 0.500
Stream size: 22.4 GiB (83%)
Language: Italian
Default: Yes
Forced: No

Audio #1
ID: 2
Format: AC-3
Format/Info: Audio Coding 3
Commercial name: Dolby Digital
Codec ID: A_AC3
Duration: 2 h 8 min
Bit rate mode: Constant
Bit rate: 448 kb/s
Channel(s): 6 channels
Channel layout: L R C LFE Ls Rs
Sampling rate: 48.0 kHz
Frame rate: 31.250 FPS (1536 SPF)
Compression mode: Lossy
Stream size: 410 MiB (1%)
Title: MVO [Kinopoisk HD]
Language: Russian
Service kind: Complete Main
Default: Yes
Forced: Yes

Audio #2
ID: 3
Format: E-AC-3
Format/Info: Enhanced AC-3
Commercial name: Dolby Digital Plus
Codec ID: A_EAC3
Duration: 2 h 8 min
Bit rate mode: Constant
Bit rate: 448 kb/s
Channel(s): 6 channels
Channel layout: L R C LFE Ls Rs
Sampling rate: 48.0 kHz
Frame rate: 31.250 FPS (1536 SPF)
Compression mode: Lossy
Stream size: 410 MiB (1%)
Title: MVO [Kinopoisk HD]
Language: Russian
Service kind: Complete Main
Default: No
Forced: No

Audio #3
ID: 4
Format: DTS XLL
Format/Info: Digital Theater Systems
Commercial name: DTS-HD Master Audio
Codec ID: A_DTS
Duration: 2 h 8 min
Bit rate mode: Variable
Bit rate: 4 054 kb/s
Channel(s): 6 channels
Channel layout: C L R Ls Rs LFE
Sampling rate: 48.0 kHz
Frame rate: 93.750 FPS (512 SPF)
Bit depth: 24 bits
Compression mode: Lossless
Stream size: 3.65 GiB (14%)
Title: Original
Language: Italian
Default: No
Forced: No

Text #1
ID: 5
Format: UTF-8
Codec ID: S_TEXT/UTF8
Codec ID/Info: UTF-8 Plain Text
Duration: 2 h 3 min
Bit rate: 103 b/s
Count of elements: 1621
Stream size: 94.1 KiB (0%)
Title: Full
Language: Russian
Default: No
Forced: No

Text #2
ID: 6
Format: UTF-8
Codec ID: S_TEXT/UTF8
Codec ID/Info: UTF-8 Plain Text
Duration: 2 h 3 min
Bit rate: 59 b/s
Count of elements: 1621
Stream size: 53.8 KiB (0%)
Title: Full
Language: English
Default: No
Forced: No

Text #3
ID: 7
Format: UTF-8
Codec ID: S_TEXT/UTF8
Codec ID/Info: UTF-8 Plain Text
Duration: 2 h 6 min
Bit rate: 59 b/s
Count of elements: 2166
Stream size: 55.3 KiB (0%)
Title: SDH
Language: English
Default: No
Forced: No

Menu
00:00:00.000: Глава 01
00:10:46.958: Глава 02
00:20:25.208: Глава 03
00:31:52.792: Глава 04
00:44:30.792: Глава 05
00:54:07.583: Глава 06
01:03:55.042: Глава 07
01:14:14.958: Глава 08
01:24:54.917: Глава 09
01:35:43.792: Глава 10
01:46:05.542: Глава 11
01:54:48.542: Глава 12

pb.wtf



Скачать Герой через торрент https://i120.fastpic.org/big/2022/0628/ac/4dcad94866da565e3ff13d9d912591ac.jpg Скачать, смотреть онлайн Герой бесплантно в хорошем качестве Описание: Рахим находится в тюрьме из-за непогашенного долга. Во время двухдневного отпуска он пытается убедить кредитора отозвать часть ... 8.2 10 5
Торрент: Зарегистрирован [2022-06-28 12:41] · скачан: 23 раз
Статус: √ проверено
Размер: 26.87 GB
Как cкачать? Как скачать Герой через торрент | UTorrent

% Раздел Тема Автор DL S | L
Фильмы [HD 720p, 1080p] (Хороший звук DUB, MVO) [ 4.98 GB ] Герой / Ghahreman / A Hero [2021 BDRip 720p] MVO [Кириллица / Кинопоиск HD] bober100 Скачать
10 | 0
Фильмы 2021 [DVDrip, WEB-DLRip, HDrip] (DUB, MVO) [ 2.18 GB ] Герой / Ghahreman / A Hero [2021 BDRip] MVO [Кириллица / Кинопоиск HD] bober100 Скачать
1 | 0
Фильмы 2021 [DVDrip, WEB-DLRip, HDrip] (DUB, MVO) [ 1.46 GB ] Герой / Ghahreman / A Hero [2021 BDRip] MVO [Кириллица / Кинопоиск HD] bober100 Скачать
4 | 0
Фильмы [HD 720p, 1080p] (Хороший звук DUB, MVO) [ 9.2 GB ] Герой / Ghahreman / A Hero [2021 BDRip 1080p] MVO [Кириллица / Кинопоиск HD] bober100 Скачать
6 | 0
T Фильмы 2021 (Звук TS, Cam, VO, DVO) [ 1.87 GB ] Герой / Ghahreman / A Hero [2021 WEB-DLRip-AVC] DVO [Pazl Voice] от ExKinoRay Lithuania Скачать
2 | 0

28-11-2019 20:33  

Отключить вcю реклaмy на сайте

    Дорогой пользователь! Огромная просьба, поблагодарите релизера, оцените раздачу и оставьте свои комментарий, если Вы скачали Герой через торрент бесплатно!
    Комментировать посты могут только пользователи прошедшие не сложную регистрацию
    Показать сообщения:    

    Герой через торрент
    Скачать бесплатно Герой
    Герой скачать торрент
    Герой смотреть онлайн
    Cкачать фильм Герой бесплатно
    Герой скачать торрент в хорошем качестве
    Герой смотреть онлайн бесплатно в хорошем качестве


    Вы не можете начинать темы
    Вы не можете отвечать на сообщения
    Вы не можете редактировать свои сообщения
    Вы не можете удалять свои сообщения
    Вы не можете голосовать в опросах
    Вы не можете прикреплять файлы к сообщениям
    Вы можете скачивать файлы