Всегда рабочее зеркало без VPN и Proxy просто перед .vidak.icu напиши любое слово или цифру, Пример http://kuon.vidak.icu

MVO

MVO

1 сезон

1

1 сезон

iTunes

1 сезон

13

1 сезон

Deluxe

pack

Рекомендуем

Repack

30

ВАЖНО

RePack

MK11

RePack

jed

RePack

fifa19

RePack

RDR2

RePack

NEED FOR SPEED™ PAYBACK

Кинопоиск HD

6 сезон

 Острые козырьки 6 сезон

Все сериалы

все сериалы на PB.wtf

RePack

FAR CRY 5
  
Magnet ссылка

Морбиус / Morbius (Даниэль Эспиноса) [2022, Ужасы, фантастика, боевик, триллер, фэнтези, UHD BDRemux 2160p, (Dolby Vision Profile 8)] DUB [Мосфильм-Мастер] +4xMVO (rus, ukr) pb.wtf

Морбиус через торрент pb.wtf

Раздают: 3 [ 0 KB/s ]
Размер: 43.49 GB | Добавлен: 1 мес. 6 д. назад | Торрент скачан:81 раз
Смотреть онлайн Морбиус | Скачать    Ребята, помогите собрать деньги на оплату серверов!!!

28-06-2022 13:46 Морбиус Скачать торрент  

Морбиус
Morbius

Год выпуска: 2022
Страна: США
Выпущено: Columbia Pictures, Marvel Entertainment
Жанр: Ужасы, фантастика, боевик, триллер, фэнтези
Продолжительность: 01:44:11
Перевод(ы):
#1: Дублированный | Мосфильм-Мастер
#2: Профессиональный многоголосый | HDRezka Studio
#3: Профессиональный многоголосый | Jaskier
#4: Профессиональный многоголосый | NewComers
#5: Профессиональный многоголосый | TVShows
Субтитры: Русские (Forced, full), украинские (Forced), английские

Режиссер: Даниэль Эспиноса

rating

В ролях: Джаред Лето, Майкл Китон, Адриа Архона, Джаред Харрис, Мэтт Смит, Тайриз Гибсон, Кори Джонсон, Арчи Рено, Чарли Шотуэлл, Аль Мадригал

Описание: Майкл Морбиус с детства страдает от редкого заболевания крови и всю свою сознательную жизнь посвятил поискам лекарства. В какой-то момент Майкл видит возможное спасение в крови летучих мышей и решается на рискованный эксперимент. Опыт вызывает неожиданную реакцию: вступив в связь с больными клетками, он меняет тело Морбиуса, превращая его в кровожадного монстра.

Качество: UHD BDRemux 2160p | Dolby Vision Profile 8
Формат: MKV

Видео: 3840x2160 at 23.976 fps, MPEG-H HEVC HDR, Dolby Vision ~ 51900 kbps avg
Аудио #01: 48 kHz, AC3, 5.1, 384 Kbps | Дублированный | Мосфильм-Мастер | RUS |
Аудио #02: 48 kHz, AC3, 5.1, 448 Kbps | Профессиональный многоголосый | HDRezka Studio | RUS |
Аудио #03: 48 kHz, AC3, 5.1, 448 Kbps | Профессиональный многоголосый | Jaskier | RUS |
Аудио #04: 48 kHz, AC3, 5.1, 640 Kbps | Профессиональный многоголосый | NewComers | RUS |
Аудио #05: 48 kHz, AC3, 2.0, 192 Kbps | Профессиональный многоголосый | TVShows | RUS |
Аудио #06: 48 kHz, AC3, 5.1, 384 Kbps | Профессиональный многоголосый | HDRezka Studio | UKR |
Аудио #07: 48 kHz, TrueHD, 7.1, 4696 Kbps | Оригинал | ENG |
Аудио #08: 48 kHz, AC3, 5.1, 640 Kbps | Оригинал | ENG |
скриншот  скриншот  скриншот  скриншот  скриншот  скриншот  

General
Unique ID : 266565698164423097385042956307983568354 (0xC88AAF9F4718FB8A3F5EE0BF153D0DE2)
Complete name : D:Video1Morbius.2022.D.MVO.BDREMUX.2160p.HDR.DVP8.seleZen.mkv
Format : Matroska
Format version : Version 4
File size : 43.5 GiB
Duration : 1 h 44 min
Overall bit rate mode : Variable
Overall bit rate : 59.8 Mb/s
Movie name : Morbius 2022 from seleZen
Encoded date : UTC 2022-07-04 23:34:04
Writing application : mkvmerge v59.0.0 ('Shining Star') 64-bit
Writing library : libebml v1.4.2 + libmatroska v1.6.4

Video
ID : 1
ID in the original source m: 4117 (0x1015)
Format : HEVC
Format/Info : High Efficiency Video Coding
Format profile : Main [email protected]@High
HDR format : Dolby Vision, Version 1.0, dvhe.08.06, BL+RPU, Blu-ray compatible / SMPTE ST 2086, HDR10 compatible
Codec ID : V_MPEGH/ISO/HEVC
Duration : 1 h 44 min
Bit rate : 51.9 Mb/s
Width : 3 840 pixels
Height : 2 160 pixels
Display aspect ratio : 16:9
Frame rate mode : Constant
Frame rate : 23.976 (24000/1001) FPS
Color space : YUV
Chroma subsampling : 4:2:0 (Type 2)
Bit depth : 10 bits
Bits/(Pixel*Frame) : 0.261
Stream size : 37.7 GiB (87%)
Language : English
Default : No
Forced : No
Color range : Limited
Color primaries : BT.2020
Transfer characteristics : PQ
Matrix coefficients : BT.2020 non-constant
Mastering display color pri: Display P3
Mastering display luminance: min: 0.0050 cd/m2, max: 4000 cd/m2
Maximum Content Light Level: 1098 cd/m2
Maximum Frame-Average Light: 297 cd/m2
Original source medium : Blu-ray

Audio #1
ID : 2
Format : AC-3
Format/Info : Audio Coding 3
Commercial name : Dolby Digital
Codec ID : A_AC3
Duration : 1 h 44 min
Bit rate mode : Constant
Bit rate : 384 kb/s
Channel(s) : 6 channels
Channel layout : L R C LFE Ls Rs
Sampling rate : 48.0 kHz
Frame rate : 31.250 FPS (1536 SPF)
Compression mode : Lossy
Stream size : 286 MiB (1%)
Title : Dub
Language : Russian
Service kind : Complete Main
Default : Yes
Forced : Yes

Audio #2
ID : 3
Format : AC-3
Format/Info : Audio Coding 3
Commercial name : Dolby Digital
Codec ID : A_AC3
Duration : 1 h 44 min
Bit rate mode : Constant
Bit rate : 448 kb/s
Channel(s) : 6 channels
Channel layout : L R C LFE Ls Rs
Sampling rate : 48.0 kHz
Frame rate : 31.250 FPS (1536 SPF)
Compression mode : Lossy
Stream size : 334 MiB (1%)
Title : MVO [HDRezka Studio]
Language : Russian
Service kind : Complete Main
Default : No
Forced : No

Audio #3
ID : 4
Format : AC-3
Format/Info : Audio Coding 3
Commercial name : Dolby Digital
Codec ID : A_AC3
Duration : 1 h 44 min
Bit rate mode : Constant
Bit rate : 448 kb/s
Channel(s) : 6 channels
Channel layout : L R C LFE Ls Rs
Sampling rate : 48.0 kHz
Frame rate : 31.250 FPS (1536 SPF)
Compression mode : Lossy
Stream size : 334 MiB (1%)
Title : MVO [Jaskier]
Language : Russian
Service kind : Complete Main
Default : No
Forced : No

Audio #4
ID : 5
Format : AC-3
Format/Info : Audio Coding 3
Commercial name : Dolby Digital
Codec ID : A_AC3
Duration : 1 h 44 min
Bit rate mode : Constant
Bit rate : 640 kb/s
Channel(s) : 6 channels
Channel layout : L R C LFE Ls Rs
Sampling rate : 48.0 kHz
Frame rate : 31.250 FPS (1536 SPF)
Compression mode : Lossy
Stream size : 477 MiB (1%)
Title : MVO [NewComers]
Language : Russian
Service kind : Complete Main
Default : No
Forced : No

Audio #5
ID : 6
Format : AC-3
Format/Info : Audio Coding 3
Commercial name : Dolby Digital
Codec ID : A_AC3
Duration : 1 h 44 min
Bit rate mode : Constant
Bit rate : 192 kb/s
Channel(s) : 2 channels
Channel layout : L R
Sampling rate : 48.0 kHz
Frame rate : 31.250 FPS (1536 SPF)
Compression mode : Lossy
Stream size : 143 MiB (0%)
Title : MVO [TVShows]
Language : Russian
Service kind : Complete Main
Default : No
Forced : No

Audio #6
ID : 7
Format : AC-3
Format/Info : Audio Coding 3
Commercial name : Dolby Digital
Codec ID : A_AC3
Duration : 1 h 44 min
Bit rate mode : Constant
Bit rate : 384 kb/s
Channel(s) : 6 channels
Channel layout : L R C LFE Ls Rs
Sampling rate : 48.0 kHz
Frame rate : 31.250 FPS (1536 SPF)
Compression mode : Lossy
Stream size : 286 MiB (1%)
Title : MVO [HDRezka Studio]
Language : Ukrainian
Service kind : Complete Main
Default : No
Forced : No

Audio #7
ID : 8
Format : MLP FBA 16-ch
Format/Info : Meridian Lossless Packing FBA with 16-channel presentation
Commercial name : Dolby TrueHD with Dolby Atmos
Codec ID : A_TRUEHD
Duration : 1 h 44 min
Bit rate mode : Variable
Bit rate : 4 696 kb/s
Maximum bit rate : 7 740 kb/s
Channel(s) : 8 channels
Channel layout : L R C LFE Ls Rs Lb Rb
Sampling rate : 48.0 kHz
Frame rate : 1 200.000 FPS (40 SPF)
Compression mode : Lossless
Stream size : 3.42 GiB (8%)
Title : Original
Language : English
Default : No
Forced : No
Number of dynamic objects : 11
Bed channel count : 1 channel
Bed channel configuration : LFE

Audio #8
ID : 9
Format : AC-3
Format/Info : Audio Coding 3
Commercial name : Dolby Digital
Codec ID : A_AC3
Duration : 1 h 44 min
Bit rate mode : Constant
Bit rate : 640 kb/s
Channel(s) : 6 channels
Channel layout : L R C LFE Ls Rs
Sampling rate : 48.0 kHz
Frame rate : 31.250 FPS (1536 SPF)
Compression mode : Lossy
Stream size : 477 MiB (1%)
Language : English
Service kind : Complete Main
Default : No
Forced : No

Text #1
ID : 10
Format : UTF-8
Codec ID : S_TEXT/UTF8
Codec ID/Info : UTF-8 Plain Text
Duration : 1 h 32 min
Bit rate : 2 b/s
Count of elements : 23
Stream size : 1.44 KiB (0%)
Title : Forced
Language : Russian
Default : Yes
Forced : Yes

Text #2
ID : 11
Format : UTF-8
Codec ID : S_TEXT/UTF8
Codec ID/Info : UTF-8 Plain Text
Duration : 1 h 36 min
Bit rate : 67 b/s
Count of elements : 960
Stream size : 47.7 KiB (0%)
Title : [Full] FOCS
Language : Russian
Default : No
Forced : No

Text #3
ID : 12
Format : UTF-8
Codec ID : S_TEXT/UTF8
Codec ID/Info : UTF-8 Plain Text
Duration : 1 h 11 min
Bit rate : 1 b/s
Count of elements : 12
Stream size : 614 Bytes (0%)
Title : Forced [HDRezka Studio]
Language : Ukrainian
Default : No
Forced : No

Text #4
ID : 13
Format : UTF-8
Codec ID : S_TEXT/UTF8
Codec ID/Info : UTF-8 Plain Text
Duration : 8 s 716 ms
Bit rate : 75 b/s
Count of elements : 2
Stream size : 82.0 Bytes (0%)
Title : Forced
Language : English
Default : No
Forced : No

Text #5
ID : 14
Format : UTF-8
Codec ID : S_TEXT/UTF8
Codec ID/Info : UTF-8 Plain Text
Duration : 1 h 34 min
Bit rate : 42 b/s
Count of elements : 1025
Stream size : 29.1 KiB (0%)
Title : Full
Language : English
Default : No
Forced : No

Text #6
ID : 15
Format : UTF-8
Codec ID : S_TEXT/UTF8
Codec ID/Info : UTF-8 Plain Text
Duration : 1 h 38 min
Bit rate : 45 b/s
Count of elements : 1161
Stream size : 33.0 KiB (0%)
Title : SDH
Language : English
Default : No
Forced : No

Menu
00:00:00.000 : Глава 01
00:05:06.932 : Глава 02
00:10:15.824 : Глава 03
00:16:57.350 : Глава 04
00:21:36.754 : Глава 05
00:27:58.385 : Глава 06
00:32:58.476 : Глава 07
00:38:04.157 : Глава 08
00:43:17.762 : Глава 09
00:48:58.102 : Глава 10
00:55:10.557 : Глава 11
01:01:11.877 : Глава 12
01:05:28.424 : Глава 13
01:13:07.049 : Глава 14
01:20:06.385 : Глава 15
01:26:32.729 : Глава 16

pb.wtf



Скачать Морбиус через торрент https://i3.imageban.ru/out/2022/06/28/98ed187cd2954606cb9ff751886a97de.jpg Скачать, смотреть онлайн Морбиус бесплантно в хорошем качестве Описание: Майкл Морбиус с детства страдает от редкого заболевания крови и всю свою сознательную жизнь посвятил поискам лекарства. В ... 8.2 10 5
Info! Золотая раздача, скачанное не засчитывается.
Торрент: Зарегистрирован [2022-07-05 03:27] · скачан: 81 раз
Статус: √ проверено
Размер: 43.49 GB
Как cкачать? Как скачать Морбиус через торрент | UTorrent

% Раздел Тема Автор DL S | L
Фильмы 2022 [DVDrip, WEB-DLRip, HDrip] (DUB, MVO) [ 1.42 GB ] Морбиус / Morbius [2022 BDRip] DUB [Мосфильм-Мастер] bober100 Скачать
7 | 0
Фильмы [HD 720p, 1080p] (Хороший звук DUB, MVO) [ 4.59 GB ] Морбиус / Morbius [2022 BDRip 720p] DUB [Мосфильм-Мастер] +MVO bober100 Скачать
6 | 0
Фильмы (HD 720p, 1080p) (48-60 fps) [ 3.88 GB ] Морбиус / Morbius [2022 комикс BDRip 720p / 60 FPS ] от R.G. HD-Films slaventi-69 Скачать
13 | 1
Фильмы [HD 720p, 1080p] (Хороший звук DUB, MVO) [ 9.56 GB ] Морбиус / Morbius [2022 BDRip 1080p] DUB [Мосфильм-Мастер] +4xMVO bober100 Скачать
18 | 0
Фильмы 2022 [DVDrip, WEB-DLRip, HDrip] (DUB, MVO) [ 2.14 GB ] Морбиус / Morbius [2022 BDRip-AVC] DUB [Мосфильм-Мастер] bober100 Скачать
6 | 0
Фильмы 2022 [DVDrip, WEB-DLRip, HDrip] (DUB, MVO) [ 1.46 GB ] Морбиус / Morbius [2022 BDRip] MVO [HDRezka Studio] bober100 Скачать
8 | 0
Фильмы (Blu-ray, BD-Remux, HDDVD) [ 21.67 GB ] Морбиус / Morbius [2022 BD Remux 1080p] DUB [Мосфильм-Мастер] +4xMVO bober100 Скачать
3 | 0

28-11-2019 20:33  

Отключить вcю реклaмy на сайте

    Дорогой пользователь! Огромная просьба, поблагодарите релизера, оцените раздачу и оставьте свои комментарий, если Вы скачали Морбиус через торрент бесплатно!
    Комментировать посты могут только пользователи прошедшие не сложную регистрацию
    Показать сообщения:    

    Морбиус через торрент
    Скачать бесплатно Морбиус
    Морбиус скачать торрент
    Морбиус смотреть онлайн
    Cкачать фильм Морбиус бесплатно
    Морбиус скачать торрент в хорошем качестве
    Морбиус смотреть онлайн бесплатно в хорошем качестве


    Вы не можете начинать темы
    Вы не можете отвечать на сообщения
    Вы не можете редактировать свои сообщения
    Вы не можете удалять свои сообщения
    Вы не можете голосовать в опросах
    Вы не можете прикреплять файлы к сообщениям
    Вы можете скачивать файлы