Всегда рабочее зеркало без VPN и Proxy просто перед .vidak.icu напиши любое слово или цифру, Пример http://2kn9.vidak.icu

MVO

MVO

1 сезон

1

1 сезон

iTunes

1 сезон

13

1 сезон

Deluxe

pack

Рекомендуем

Repack

30

ВАЖНО

RePack

MK11

RePack

jed

RePack

fifa19

RePack

RDR2

RePack

NEED FOR SPEED™ PAYBACK

Кинопоиск HD

6 сезон

 Острые козырьки 6 сезон

Все сериалы

все сериалы на PB.wtf

RePack

FAR CRY 5
  
Magnet ссылка

Удивительная миссис Мейзел / The Marvelous Mrs. Maisel / Сезон: 4 / Серии: 1-8 из 8 (Дэниэл Палладино, Скотт Эллис) [2022, драма, комедия, WEB-DL (HEVC)1080p] 2x [MVO] (Jaskier, HDRezka Studio) pb.wtf

Удивительная миссис Мейзел через торрент pb.wtf

Размер: 17.69 GB | Добавлен: 1 мес. 9 д. назад | Торрент скачан:9 раз
Смотреть онлайн Удивительная миссис Мейзел | Скачать    Ребята, помогите собрать деньги на оплату серверов!!!

28-06-2022 14:45 Удивительная миссис Мейзел Скачать торрент  

Удивительная миссис Мейзел / The Marvelous Mrs. Maisel


Год выпуска: 2022
Страна: США
Жанр: драма, комедия,
Продолжительность: ~ 00:55:00
Перевод #1: Профессиональный (многоголосый закадровый) | Jaskier
Перевод #2: Профессиональный (многоголосый закадровый) | HDRezka Studio

Режиссёр: Эми Шерман-Палладино, Дэниэл Палладино, Скотт Эллис

В ролях: Рэйчел Броснахэн, Алекс Борштейн, Марин Хинкль, Тони Шэлоуб, Майкл Зеген, Бейли Де Янг, Матильда Дауни, Matteo Pascale, Брайан Тарантина, Нунзио Паскаль

Описание: Отправляемся с вами в пятьдесят восьмой год прошлого века. Главная героиня живет, не зная проблем и сложностей. У нее есть все, чтобы быть по-настоящему счастливой. Отношения с мужем идут в гору, а двое детей радуют каждый день. К тому же живет семейка в весьма хорошем райончике, который всегда привлекает своим уютом и красотой. Главные герои сериала ютятся в квартире где-то на Верхнем Вест-Сайде. Приятности на этом не заканчиваются. Мириам Мэйзел открывает в себе невероятную способность. Как оказалось, девушка великолепно читает стенд-ап. Она способна вызвать даже самой простой историей смех близких людей. Жизнь главной героини меняется полностью, когда та начинает делать успехи в этом направлении творчества!

rating

Качество: WEB-DL (HEVC) 1080p
Формат: MKV
Видео: HEVC , 1920x1080, ~ 3 878 Kbps, 23.976 fps
Аудио #1: AC3, 48 kHz, 6 ch, 448 kbps - Jaskier *18+ Ненормативная лексика
Аудио #2: AC3, 48 kHz, 6 ch, 448 kbps - HDRezka Studio
Аудио #3: E-AC3, 48 kHz, 6 ch, 640 kbps - Eng
Субтитры: Русские (Forced, Full), английские (SDH)
скриншот  скриншот  скриншот  
General
Unique ID : 224436803674024095419365938519083736982 (0xA8D8F4C1C77ADD0A9C4BEF0E2DAA5F96)
Complete name : The Marvelous Mrs. Maisel.S04.WEB-DL(HEVC)1080p.xz\The Marvelous Mrs. Maisel.S04E01.WEB-DL (HEVC)1080p. [Jaskier, HDRezka Studio].xz.mkv
Format : Matroska
Format version : Version 4
File size : 2.11 GiB
Duration : 54 min 45 s
Overall bit rate : 5 524 kb/s
Movie name : The Marvelous Mrs. Maisel.S04E01.WEB-DL (HEVC)1080p. [Jaskier, HDRezka Studio].xz
Encoded date : UTC 2022-06-28 08:03:18
Writing application : mkvmerge v6.1.0 ('Old Devil') built on Mar 2 2013 14:32:37
Writing library : libebml v1.3.0 + libmatroska v1.4.0

Video
ID : 1
Format : HEVC
Format/Info : High Efficiency Video Coding
Format profile : Main [email protected]@Main
Codec ID : V_MPEGH/ISO/HEVC
Duration : 54 min 45 s
Bit rate : 3 878 kb/s
Width : 1 920 pixels
Height : 1 080 pixels
Display aspect ratio : 16:9
Frame rate mode : Constant
Frame rate : 23.976 (24000/1001) FPS
Color space : YUV
Chroma subsampling : 4:2:0
Bit depth : 10 bits
Bits/(Pixel*Frame) : 0.078
Stream size : 1.48 GiB (70%)
Title : The Marvelous Mrs. Maisel.S04E01.WEB-DL (HEVC)1080p. [Jaskier, HDRezka Studio].xz
Writing library : x265 3.5+20-4c4aee0bc:[DJATOM's Mod][Windows][GCC 10.2.1][64 bit] 10bit
Encoding settings : cpuid=1111039 / frame-threads=5 / numa-pools=32 / wpp / no-pmode / no-pme / no-psnr / no-ssim / log-level=2 / input-csp=1 / input-res=1920x1080 / interlace=0 / total-frames=78769 / level-idc=0 / high-tier=1 / uhd-bd=0 / ref=4 / no-allow-non-conformance / no-repeat-headers / annexb / no-aud / no-hrd / info / hash=0 / no-temporal-layers / open-gop / min-keyint=23 / keyint=250 / gop-lookahead=0 / bframes=8 / b-adapt=2 / b-pyramid / bframe-bias=0 / rc-lookahead=80 / lookahead-slices=0 / scenecut=40 / hist-scenecut=0 / radl=0 / no-splice / no-intra-refresh / ctu=64 / min-cu-size=8 / no-rect / no-amp / max-tu-size=32 / tu-inter-depth=1 / tu-intra-depth=1 / limit-tu=0 / rdoq-level=2 / dynamic-rd=0.00 / no-ssim-rd / signhide / no-tskip / nr-intra=0 / nr-inter=0 / no-constrained-intra / no-strong-intra-smoothing / max-merge=3 / limit-refs=3 / limit-modes / me=3 / subme=5 / merange=57 / temporal-mvp / no-frame-dup / no-hme / weightp / no-weightb / no-analyze-src-pics / deblock=-3:-3 / no-sao / no-sao-non-deblock / rd=4 / selective-sao=0 / no-early-skip / rskip / no-fast-intra / no-tskip-fast / no-cu-lossless / no-b-intra / no-splitrd-skip / rdpenalty=0 / psy-rd=2.00 / psy-rdoq=1.70 / no-rd-refine / no-lossless / cbqpoffs=0 / crqpoffs=0 / rc=abr / bitrate=4000 / qcomp=0.60 / qpstep=4 / stats-write=0 / stats-read=2 / cplxblur=20.0 / qblur=0.5 / ipratio=1.40 / pbratio=1.30 / aq-mode=3 / aq-strength=0.80 / cutree / zone-count=0 / no-strict-cbr / qg-size=32 / no-rc-grain / qpmax=69 / qpmin=0 / no-const-vbv / sar=0 / overscan=0 / videoformat=5 / range=0 / colorprim=1 / transfer=1 / colormatrix=1 / chromaloc=0 / display-window=0 / cll=0,0 / min-luma=0 / max-luma=1023 / log2-max-poc-lsb=8 / vui-timing-info / vui-hrd-info / slices=1 / no-opt-qp-pps / no-opt-ref-list-length-pps / no-multi-pass-opt-rps / scenecut-bias=0.05 / hist-threshold=0.03 / no-opt-cu-delta-qp / no-aq-motion / no-hdr10 / no-hdr10-opt / no-dhdr10-opt / no-idr-recovery-sei / analysis-reuse-level=0 / analysis-save-reuse-level=0 / analysis-load-reuse-level=0 / scale-factor=0 / refine-intra=0 / refine-inter=0 / refine-mv=1 / refine-ctu-distortion=0 / no-limit-sao / ctu-info=0 / no-lowpass-dct / refine-analysis-type=0 / copy-pic=1 / max-ausize-factor=1.0 / no-dynamic-refine / no-single-sei / no-hevc-aq / no-svt / no-field / qp-adaptation-range=1.00 / scenecut-aware-qp=0conformance-window-offsets / right=0 / bottom=0 / decoder-max-rate=0 / no-vbv-live-multi-pass
Default : Yes
Forced : No
Color range : Limited
Color primaries : BT.709
Transfer characteristics : BT.709
Matrix coefficients : BT.709
Duration_Source : General_Duration

Audio #1
ID : 2
Format : AC-3
Format/Info : Audio Coding 3
Commercial name : Dolby Digital
Codec ID : A_AC3
Duration : 54 min 45 s
Bit rate mode : Constant
Bit rate : 448 kb/s
Channel(s) : 6 channels
Channel layout : L R C LFE Ls Rs
Sampling rate : 48.0 kHz
Frame rate : 31.250 FPS (1536 SPF)
Compression mode : Lossy
Stream size : 175 MiB (8%)
Title : Jaskier
Language : Russian
Service kind : Complete Main
Default : No
Forced : No
Duration_Source : General_Duration

Audio #2
ID : 3
Format : AC-3
Format/Info : Audio Coding 3
Commercial name : Dolby Digital
Codec ID : A_AC3
Duration : 54 min 45 s
Bit rate mode : Constant
Bit rate : 448 kb/s
Channel(s) : 6 channels
Channel layout : L R C LFE Ls Rs
Sampling rate : 48.0 kHz
Frame rate : 31.250 FPS (1536 SPF)
Compression mode : Lossy
Stream size : 175 MiB (8%)
Title : HDR
Language : Russian
Service kind : Complete Main
Default : No
Forced : No
Duration_Source : General_Duration

Audio #3
ID : 4
Format : E-AC-3
Format/Info : Enhanced AC-3
Commercial name : Dolby Digital Plus
Codec ID : A_EAC3
Duration : 54 min 45 s
Bit rate mode : Constant
Bit rate : 640 kb/s
Channel(s) : 6 channels
Channel layout : L R C LFE Ls Rs
Sampling rate : 48.0 kHz
Frame rate : 31.250 FPS (1536 SPF)
Compression mode : Lossy
Stream size : 251 MiB (12%)
Title : Surround 5.1
Language : English
Service kind : Complete Main
Default : No
Forced : No
Statistics Tags Issue : mkvmerge v65.0.0 ('Too Much') 64-bit 2022-03-02 00:13:30 / mkvmerge v6.1.0 ('Old Devil') built on Mar 2 2013 14:32:37 2022-06-28 08:03:18
FromStats_BitRate : 640000
FromStats_Duration : 00:54:45.344000000
FromStats_FrameCount : 102667
FromStats_StreamSize : 262827520
Duration_Source : General_Duration

Text #1
ID : 5
Format : UTF-8
Codec ID : S_TEXT/UTF8
Codec ID/Info : UTF-8 Plain Text
Title : Forced
Language : English
Default : No
Forced : No
Statistics Tags Issue : mkvmerge v65.0.0 ('Too Much') 64-bit 2022-03-02 00:13:30 / mkvmerge v6.1.0 ('Old Devil') built on Mar 2 2013 14:32:37 2022-06-28 08:03:18
FromStats_BitRate : 35
FromStats_Duration : 00:02:59.012000000
FromStats_FrameCount : 27
FromStats_StreamSize : 791

Text #2
ID : 6
Format : UTF-8
Codec ID : S_TEXT/UTF8
Codec ID/Info : UTF-8 Plain Text
Language : English
Default : No
Forced : No
Statistics Tags Issue : mkvmerge v65.0.0 ('Too Much') 64-bit 2022-03-02 00:13:30 / mkvmerge v6.1.0 ('Old Devil') built on Mar 2 2013 14:32:37 2022-06-28 08:03:18
FromStats_BitRate : 113
FromStats_Duration : 00:52:54.046000000
FromStats_FrameCount : 1277
FromStats_StreamSize : 45130

Text #3
ID : 7
Format : UTF-8
Codec ID : S_TEXT/UTF8
Codec ID/Info : UTF-8 Plain Text
Title : SDH
Language : English
Default : No
Forced : No
Statistics Tags Issue : mkvmerge v65.0.0 ('Too Much') 64-bit 2022-03-02 00:13:30 / mkvmerge v6.1.0 ('Old Devil') built on Mar 2 2013 14:32:37 2022-06-28 08:03:18
FromStats_BitRate : 119
FromStats_Duration : 00:53:16.360000000
FromStats_FrameCount : 1341
FromStats_StreamSize : 47691

Text #4
ID : 8
Format : UTF-8
Codec ID : S_TEXT/UTF8
Codec ID/Info : UTF-8 Plain Text
Language : Russian
Default : No
Forced : No
Statistics Tags Issue : mkvmerge v65.0.0 ('Too Much') 64-bit 2022-03-02 00:13:30 / mkvmerge v6.1.0 ('Old Devil') built on Mar 2 2013 14:32:37 2022-06-28 08:03:18
FromStats_BitRate : 148
FromStats_Duration : 00:53:26.245000000
FromStats_FrameCount : 932
FromStats_StreamSize : 59492

Text #5
ID : 9
Format : UTF-8
Codec ID : S_TEXT/UTF8
Codec ID/Info : UTF-8 Plain Text
Title : forced
Language : Russian
Default : No
Forced : No

Menu
00:00:00.000 : en:Amazon Original
00:00:05.000 : en:Title Sequence
00:00:12.000 : en:Scene 3
00:02:42.000 : en:Scene 4
00:04:00.000 : en:Scene 5
00:06:57.000 : en:Scene 6
00:08:59.000 : en:Scene 7
00:09:43.000 : en:Scene 8
00:10:27.000 : en:Scene 9
00:13:13.000 : en:Scene 10
00:13:40.000 : en:Scene 11
00:14:11.000 : en:Scene 12
00:15:10.000 : en:Scene 13
00:18:27.000 : en:Scene 14
00:21:20.000 : en:Scene 15
00:22:31.000 : en:Scene 16
00:22:54.000 : en:Scene 17
00:25:50.000 : en:Scene 18
00:27:14.000 : en:Scene 19
00:29:39.000 : en:Scene 20
00:32:00.000 : en:Scene 21
00:32:08.000 : en:Scene 22
00:32:20.000 : en:Scene 23
00:35:28.000 : en:Scene 24
00:36:28.000 : en:Scene 25
00:38:18.000 : en:Scene 26
00:42:20.000 : en:Scene 27
00:43:46.000 : en:Scene 28
00:45:01.000 : en:Scene 29
00:45:19.000 : en:Scene 30
00:49:21.000 : en:Scene 31
00:51:15.000 : en:End Credits
00:53:34.000 : en:Studio Logo
pb.wtf



Скачать Удивительная миссис Мейзел через торрент https://i120.fastpic.org/big/2022/0628/a8/844722c52aa2a66bc0429df0fa73f9a8.jpg Скачать, смотреть онлайн Удивительная миссис Мейзел бесплантно в хорошем качестве Описание: Отправляемся с вами в пятьдесят восьмой год прошлого века. Главная героиня живет, не зная проблем и сложностей. У нее есть все, ... 10 10 3
Торрент: Зарегистрирован [2022-06-28 14:45] · скачан: 9 раз
Статус: √ проверено
Размер: 17.69 GB
Как cкачать? Как скачать Удивительная миссис Мейзел через торрент | UTorrent

% Раздел Тема Автор DL S | L
Зарубежные сериалы [ 28.32 GB ] Удивительная миссис Мейзел / The Marvelous Mrs. Maisel / Сезон: 4 / Серии: 1-8 из 8 [2022 WEB-DL 1080p] [MVO] killermax2013 Скачать
1 | 0

28-11-2019 20:33  

Отключить вcю реклaмy на сайте

28-06-2022 17:13 Удивительная миссис Мейзел Скачать торрент  

Ура !!! спасибо !pb.wtf



    Дорогой пользователь! Огромная просьба, поблагодарите релизера, оцените раздачу и оставьте свои комментарий, если Вы скачали Удивительная миссис Мейзел через торрент бесплатно!
    Комментировать посты могут только пользователи прошедшие не сложную регистрацию
    Показать сообщения:    

    Удивительная миссис Мейзел через торрент
    Скачать бесплатно Удивительная миссис Мейзел
    Удивительная миссис Мейзел скачать торрент
    Удивительная миссис Мейзел смотреть онлайн
    Cкачать фильм Удивительная миссис Мейзел бесплатно
    Удивительная миссис Мейзел скачать торрент в хорошем качестве
    Удивительная миссис Мейзел смотреть онлайн бесплатно в хорошем качестве


    Вы не можете начинать темы
    Вы не можете отвечать на сообщения
    Вы не можете редактировать свои сообщения
    Вы не можете удалять свои сообщения
    Вы не можете голосовать в опросах
    Вы не можете прикреплять файлы к сообщениям
    Вы можете скачивать файлы