Всегда рабочее зеркало без VPN и Proxy просто перед .vidak.icu напиши любое слово или цифру, Пример http://keqk.vidak.icu

Лицензия

MVO

1 сезон

1

1 сезон

iTunes

1 сезон

13

1 сезон

Deluxe

pack

Рекомендуем

Repack

30

ВАЖНО

RePack

MK11

RePack

jed

RePack

fifa19

RePack

RDR2

RePack

NEED FOR SPEED™ PAYBACK

Кинопоиск HD

6 сезон

 Острые козырьки 6 сезон

Все сериалы

все сериалы на PB.wtf

RePack

FAR CRY 5
  
Magnet ссылка

Человек из Торонто / The Man from Toronto (Патрик Хьюз) [2022, Боевик, триллер, комедия, WEB-DLRip-AVC] 2xMVO [Jaskier, TVShows] pb.wtf

Человек из Торонто через торрент pb.wtf

Раздают: 14 [ 215 KB/s ]
Размер: 1.98 GB | Добавлен: 1 мес. 19 д. назад | Торрент скачан:409 раз
Смотреть онлайн Человек из Торонто | Скачать    Ребята, помогите собрать деньги на оплату серверов!!!

28-06-2022 15:31 Человек из Торонто Скачать торрент  

Человек из Торонто
The Man from Toronto

Год выпуска: 2022
Страна: США
Студия: Bron Studios, Columbia Pictures Corporation, Escape Artists, Hartbeat Productions, Sony Pictures Entertainment (SPE)
Жанр: Боевик, триллер, комедия
Продолжительность: 01:52:02
Перевод(ы):
#1: Профессиональный многоголосый | Jaskier
#2: Профессиональный многоголосый | TVShows
Субтитры: Русские (Full), украинские (Full), английские

Режиссер: Патрик Хьюз

rating

В ролях: Эллен Баркин, Кейли Куоко, Вуди Харрельсон, Кевин Харт, Лила Лорен, Жасмин Мэтьюз, Кейт Драммонд, Роб Арчер, Пирсон Фод, Томохиса Ямасита

Описание: Тедди, работая консультантом по продажам, уверенно двигался вдоль черной полосы своей жизни. Его словно преследовали разнообразные несчастья. Он не успевал отойти от одной неудачи, как тут же появлялась следующая. Последней каплей стало то, что ошибка онлайн сервиса Airbnb приводит героя фильма «Человек из Торонто» в квартиру, принадлежащую опасному киллеру. Не успел он прийти в себя, как все вокруг начали считать его преступником. На подсознательном уровне он понимал, что избежать новых неприятностей и проблем ему поможет безобидное притворство. И все бы хорошо, но в квартиру нагрянули представители правоохранительных органов. Вот так Тедди оказывается в местном отделении полиции. Чтобы не усугублять ситуацию ещё больше, парень решает во всем признаться. Тем временем у полицейских созревает гениальный план…

Качество: WEB-DLRip-AVC
Формат: MKV

Видео: MPEG-4 AVC, 1024x428 at 23.976 fps, [email protected], ~1504 kbps
Аудио #01: 48 kHz, AC3, 5.1, 448 Kbps | Профессиональный многоголосый | Jaskier | RUS |
Аудио #02: 48 kHz, AC3, 2.0, 192 Kbps | Профессиональный многоголосый | TVShows | RUS |
Аудио #03: 48 kHz, AC3, 5.1, 384 Kbps | Оригинал | ENG |
скриншот  скриншот  скриншот  скриншот  

x264 [info]: frame I:1857 Avg QP:15.03 size: 48686
x264 [info]: frame P:34582 Avg QP:16.78 size: 17385
x264 [info]: frame B:124762 Avg QP:18.91 size: 4590

General
Unique ID : 299690968341403545543767552796057701701 (0xE17661892864358A708A901E061C8D45)
Complete name : K:The.Man.from.Toronto.2022.WEB-DLRip.x264.seleZen.mkv
Format : Matroska
Format version : Version 4
File size : 1.98 GiB
Duration : 1 h 52 min
Overall bit rate : 2 529 kb/s
Movie name : The.Man.from.Toronto.2022.WEB-DLRip.x264.seleZen
Encoded date : UTC 28.06.2022 15:06:49
Writing application : mkvmerge v63.0.0 ('Everything') 64-bit
Writing library : libebml v1.4.2 + libmatroska v1.6.4
Cover : Yes
Attachments : cover.jpg / small_cover.jpg

Video
ID : 1
Format : AVC
Format/Info : Advanced Video Codec
Format profile : [email protected]
Format settings : CABAC / 12 Ref Frames
Format settings, CABAC : Yes
Format settings, Reference : 12 frames
Codec ID : V_MPEG4/ISO/AVC
Duration : 1 h 52 min
Bit rate : 1 504 kb/s
Width : 1 024 pixels
Height : 428 pixels
Display aspect ratio : 2.40:1
Frame rate mode : Constant
Frame rate : 23.976 (24000/1001) FPS
Color space : YUV
Chroma subsampling : 4:2:0
Bit depth : 8 bits
Scan type : Progressive
Bits/(Pixel*Frame) : 0.143
Stream size : 1.18 GiB (59%)
Title : -=DoMiNo=-
Writing library : x264 core 164 by -=DoMiNo=-
Encoding settings : cabac=1 / ref=12 / deblock=1:-2:-2 / analyse=0×3:0×131 / me=umh / subme=10 / psy=1 / psy_rd=1.07:0.15 / mixed_ref=1 / me_range=32 / chroma_me=1 / trellis=2 / 8×8dct=1 / cqm=0 / deadzone=21,11 / fast_pskip=0 / chroma_qp_offset=-3 / threads=17 / lookahead_threads=3 / sliced_threads=0 / nr=0 / decimate=1 / interlaced=0 / bluray_compat=0 / constrained_intra=0 / bframes=10 / b_pyramid=2 / b_adapt=2 / b_bias=0 / direct=1 / weightb=1 / open_gop=0 / weightp=2 / keyint=250 / keyint_min=23 / scenecut=40 / intra_refresh=0 / rc_lookahead=60 / rc=crf / mbtree=0 / crf=18.5 / qcomp=0.65 / qpmin=0 / qpmax=69 / qpstep=4 / vbv_maxrate=50000 / vbv_bufsize=62500 / crf_max=0.0 / nal_hrd=none / filler=0 / ip_ratio=1.35 / pb_ratio=1.25 / aq=3:0.90
Language : English
Default : Yes
Forced : No
Color range : Limited
Color primaries : BT.709
Transfer characteristics : BT.709
Matrix coefficients : BT.709

Audio #1
ID : 2
Format : AC-3
Format/Info : Audio Coding 3
Commercial name : Dolby Digital
Codec ID : A_AC3
Duration : 1 h 52 min
Bit rate mode : Constant
Bit rate : 448 kb/s
Channel (s) : 6 channels
Channel layout : L R C LFE Ls Rs
Sampling rate : 48.0 kHz
Frame rate : 31.250 FPS (1536 SPF)
Compression mode : Lossy
Stream size : 359 MiB (18%)
Title : MVO [Jaskier]
Language : Russian
Service kind : Complete Main
Default : Yes
Forced : Yes

Audio #2
ID : 3
Format : AC-3
Format/Info : Audio Coding 3
Commercial name : Dolby Digital
Codec ID : A_AC3
Duration : 1 h 52 min
Bit rate mode : Constant
Bit rate : 192 kb/s
Channel (s) : 2 channels
Channel layout : L R
Sampling rate : 48.0 kHz
Frame rate : 31.250 FPS (1536 SPF)
Compression mode : Lossy
Stream size : 154 MiB (8%)
Title : MVO [TVShows]
Language : Russian
Service kind : Complete Main
Default : No
Forced : No

Audio #3
ID : 4
Format : AC-3
Format/Info : Audio Coding 3
Commercial name : Dolby Digital
Codec ID : A_AC3
Duration : 1 h 52 min
Bit rate mode : Constant
Bit rate : 384 kb/s
Channel (s) : 6 channels
Channel layout : L R C LFE Ls Rs
Sampling rate : 48.0 kHz
Frame rate : 31.250 FPS (1536 SPF)
Compression mode : Lossy
Stream size : 308 MiB (15%)
Title : Original
Language : English
Service kind : Complete Main
Default : No
Forced : No

Text #1
ID : 5
Format : UTF-8
Codec ID : S_TEXT/UTF8
Codec ID/Info : UTF-8 Plain Text
Duration : 1 h 48 min
Bit rate : 109 b/s
Count of elements : 1860
Stream size : 87.1 KiB (0%)
Title : Full
Language : Russian
Default : No
Forced : No

Text #2
ID : 6
Format : UTF-8
Codec ID : S_TEXT/UTF8
Codec ID/Info : UTF-8 Plain Text
Duration : 1 h 48 min
Bit rate : 109 b/s
Count of elements : 1878
Stream size : 86.9 KiB (0%)
Title : Full
Language : Ukrainian
Default : No
Forced : No

Text #3
ID : 7
Format : UTF-8
Codec ID : S_TEXT/UTF8
Codec ID/Info : UTF-8 Plain Text
Duration : 16 s 350 ms
Bit rate : 33 b/s
Count of elements : 4
Stream size : 68.0 Bytes (0%)
Title : Forced
Language : English
Default : No
Forced : No

Text #4
ID : 8
Format : UTF-8
Codec ID : S_TEXT/UTF8
Codec ID/Info : UTF-8 Plain Text
Duration : 1 h 44 min
Bit rate : 79 b/s
Count of elements : 1937
Stream size : 60.9 KiB (0%)
Title : Full
Language : English
Default : No
Forced : No

Text #5
ID : 9
Format : UTF-8
Codec ID : S_TEXT/UTF8
Codec ID/Info : UTF-8 Plain Text
Duration : 1 h 44 min
Bit rate : 90 b/s
Count of elements : 2283
Stream size : 69.5 KiB (0%)
Title : SDH
Language : English
Default : No
Forced : No

pb.wtf



Скачать Человек из Торонто через торрент https://i4.imageban.ru/out/2022/06/28/75036c22b2428ae8b8a21a611e26691b.jpg Скачать, смотреть онлайн Человек из Торонто бесплантно в хорошем качестве Описание: Тедди, работая консультантом по продажам, уверенно двигался вдоль черной полосы своей жизни. Его словно преследовали ... 10 10 10
Info! Золотая раздача, скачанное не засчитывается.
Торрент: Зарегистрирован [2022-06-28 15:31] · скачан: 409 раз
Статус: √ проверено
Размер: 1.98 GB
Как cкачать? Как скачать Человек из Торонто через торрент | UTorrent

% Раздел Тема Автор DL S | L
Фильмы (WEB-DL 720p, 1080p) [ 13.01 GB ] Человек из Торонто / The Man from Toronto [2022 WEBRip 1080p] 2xMVO [Jaskier TVShows] bober100 Скачать
23 | 0
Фильмы 2022 [DVDrip, WEB-DLRip, HDrip] (DUB, MVO) [ 1.46 GB ] Человек из Торонто / The Man from Toronto [2022 WEB-DLRip] MVO [Jaskier] bober100 Скачать
12 | 3
Фильмы с украинским озвучиванием [ 2.98 GB ] Человек из Торонто / Людина з Торонто / The Man from Toronto [2022 WEB-DL 1080p] DUB [UKR / Netflix] bober100 Скачать
2 | 0

28-11-2019 20:33  

Отключить вcю реклaмy на сайте

28-06-2022 17:53 Человек из Торонто Скачать торрент  

вырубил.тупой юморpb.wtf



28-06-2022 19:52 Человек из Торонто Скачать торрент  

Вам скучно, нечего делать после работы, есть пивко? Смотрите.
Если есть вариант посмотреть другое скучное кино, флаг вам .
Сравнивали с Шпионом, вообще нет, ужасное говно.pb.wtf



    Дорогой пользователь! Огромная просьба, поблагодарите релизера, оцените раздачу и оставьте свои комментарий, если Вы скачали Человек из Торонто через торрент бесплатно!
    Комментировать посты могут только пользователи прошедшие не сложную регистрацию
    Показать сообщения:    

    Человек из Торонто через торрент
    Скачать бесплатно Человек из Торонто
    Человек из Торонто скачать торрент
    Человек из Торонто смотреть онлайн
    Cкачать фильм Человек из Торонто бесплатно
    Человек из Торонто скачать торрент в хорошем качестве
    Человек из Торонто смотреть онлайн бесплатно в хорошем качестве


    Вы можете начинать темы
    Вы можете отвечать на сообщения
    Вы не можете редактировать свои сообщения
    Вы не можете удалять свои сообщения
    Вы не можете голосовать в опросах
    Вы не можете прикреплять файлы к сообщениям
    Вы можете скачивать файлы