Лицензия

MVO

1

1 сезон

Лицензия

Лицензия

13

MVO

1 сезон

Deluxe Edition

pack

Рекомендуем

30

Repack

ВАЖНО

ВАЖНО

Ghostwire

RePack

jed

RePack

fifa19

RePack

RDR2

RePack

NEED FOR SPEED™ PAYBACK

RePack

Кинопоиск HD

 Острые козырьки 6 сезон

6 сезон

FAR CRY 6

RePack

Лицензия

MVO

1

1 сезон

1 сезон

Лицензия

  

Мокьюментари / Сезон: 1 / Серии: 1-8 из 8 (Олег Витвицки) [2022, Комедия, драма, WEBRip-AVC]

Мокьюментари через торрент pb.wtf

Размер: 2.4 GB | Добавлен: 2 мес. 25 д. назад | Торрент скачан:26 раз
Смотреть онлайн Мокьюментари | Скачать   

30-06-2022 10:34 Мокьюментари Скачать торрент  

Мокьюментари
Год выпуска: 2022
Страна: Россия
Жанр: Комедия, драма
Продолжительность: ~ 00:25:00
Перевод: Не требуется

Режиссер: Олег Витвицки



В ролях: Юлия Волкова, Михаил Тройник, Софья Шуткина, Виталий Коваленко, Ирина Воронова, Павел Майков, Игорь Ветров, Елена Панджариди, Марина Барсукова, Ася Калинина, Сергей Комаров, Николай Аверюшкин, Елена Анисимова, Андрей Бодренков, Лерика Витвицки, Валерия Гладилина, Станислав Бондаренко, Виктор Васильев, Александр Вдовин, Олег Куксовский, Максим Логинов, Александр Мехряков, Александр Назаров, Кирилл Назаров, Анастасия Тодореску, Александра Тулинова, Сергей Федюшкин, Александр Хатников, Людмила Чурсина, Андрей Филиппак, Карен Оганесян, Екатерина Рокотова, Марина Вольхина, Александра Новикова, Кирилл Плотников, Анна Соколова, Артур Суворов

Описание: Юлия Зайцева с детства мечтает о мировом признании, вот только с ролями ей никак не везет — девушке предлагают сниматься только в дешевых мыльных сериалах. Она искренне убеждена, что ее талант достоин «Оскара», но как именитым режиссерам обратить на нее внимание? В своих бедах Юлия винит непутевого актерского агента Мишу, который с ней работает много лет и пытается найти для нее стоящую роль.

Качество: WEBRip-AVC
Формат: MKV

Видео: MPEG-4 AVC, ~ 1600 Кбит/с, 1024x432, 25 кадр/с
Аудио: 48.0 kHz, AC3 Dolby Digital, 2/0 (L,R) ch, ~ 192 kbps

General
Unique ID : 226624177079260423550756877410395280102 (0xAA7E3A979C84738DA1D027847858D2E6)
Complete name : F:\Мокьюментари.(2022).WEBRip.(AVC).Files-x\01.Мокьюментари.(2022).WEBRip.(AVC).by.Серый1779.Files-x.mkv
Format : Matroska
Format version : Version 2
File size : 260 MiB
Duration : 20 min 17 s
Overall bit rate : 1 794 kb/s
Encoded date : UTC 2022-06-08 22:34:07
Writing application : mkvmerge v7.8.0 ('River Man') 32bit built on Apr 3 2015 12:11:22
Writing library : libebml v1.3.1 + libmatroska v1.4.2

Video
ID : 1
Format : AVC
Format/Info : Advanced Video Codec
Format profile : [email protected]
Format settings : CABAC / 9 Ref Frames
Format settings, CABAC : Yes
Format settings, RefFrames : 9 frames
Codec ID : V_MPEG4/ISO/AVC
Duration : 20 min 17 s
Bit rate : 1 600 kb/s
Width : 1 024 pixels
Height : 432 pixels
Display aspect ratio : 2.40:1
Frame rate mode : Constant
Frame rate : 25.000 FPS
Color space : YUV
Chroma subsampling : 4:2:0
Bit depth : 8 bits
Scan type : Progressive
Bits/(Pixel*Frame) : 0.145
Stream size : 227 MiB (87%)
Writing library : x264 core 146 r2538 121396c
Encoding settings : cabac=1 / ref=9 / deblock=1:-2:-1 / analyse=0x3:0x133 / me=umh / subme=9 / psy=1 / psy_rd=1.00:0.15 / mixed_ref=1 / me_range=32 / chroma_me=1 / trellis=2 / 8x8dct=1 / cqm=0 / deadzone=21,11 / fast_pskip=0 / chroma_qp_offset=-3 / threads=18 / lookahead_threads=3 / sliced_threads=0 / nr=0 / decimate=1 / interlaced=0 / bluray_compat=0 / constrained_intra=0 / bframes=9 / b_pyramid=2 / b_adapt=2 / b_bias=0 / direct=1 / weightb=1 / open_gop=0 / weightp=2 / keyint=250 / keyint_min=25 / scenecut=40 / intra_refresh=0 / rc=2pass / mbtree=0 / bitrate=1600 / ratetol=1.0 / qcomp=0.60 / qpmin=0 / qpmax=69 / qpstep=4 / cplxblur=20.0 / qblur=0.5 / ip_ratio=1.40 / pb_ratio=1.30 / aq=2:1.00
Default : Yes
Forced : No
Color range : Limited
Color primaries : BT.709
Transfer characteristics : BT.709
Matrix coefficients : BT.709

Audio
ID : 2
Format : AC-3
Format/Info : Audio Coding 3
Format settings, Endianness : Big
Codec ID : A_AC3
Duration : 20 min 17 s
Bit rate mode : Constant
Bit rate : 192 kb/s
Channel(s) : 2 channels
Channel positions : Front: L R
Sampling rate : 48.0 kHz
Frame rate : 31.250 FPS (1536 SPF)
Bit depth : 16 bits
Compression mode : Lossy
Stream size : 27.9 MiB (11%)
Service kind : Complete Main
Default : Yes
Forced : No




Скачать Мокьюментари через торрент https://i120.fastpic.org/big/2022/0609/05/721224c6e7614b13143ac3bf0d87b805.jpg Скачать, смотреть онлайн Мокьюментари бесплантно в хорошем качестве Описание: Юлия Зайцева с детства мечтает о мировом признании, вот только с ролями ей никак не везет — девушке предлагают сниматься только в ... 8.2 10 5
Торрент: Зарегистрирован [2022-06-30 10:34] · скачан: 26 раз
Статус: √ проверено
Размер: 2.4 GB
Как cкачать? Как скачать Мокьюментари через торрент | UTorrent

% Раздел Тема Автор DL S | L
TNT serials [ 2.54 GB ] Мокьюментари / Сезон: 1 / Серии: 1-8 из 8 | | WEBRip bober100 Скачать
1 | 0
TNT serials [ 6.17 GB ] Мокьюментари / Сезон: 1 / Серии: 1-8 из 8 | | 1080p bober100 Скачать
2 | 0

28-11-2019 20:33  

Отключить вcю реклaмy на сайте

    Дорогой пользователь! Огромная просьба, поблагодарите релизера, оцените раздачу и оставьте свои комментарий, если Вы скачали Мокьюментари через торрент бесплатно!!
    Комментировать посты могут только пользователи прошедшие не сложную регистрацию
    Показать сообщения:    


    Мокьюментари через торрент
    Скачать бесплатно Мокьюментари
    Мокьюментари скачать торрент
    Мокьюментари смотреть онлайн
    Cкачать фильм Мокьюментари бесплатно
    Мокьюментари скачать торрент в хорошем качестве
    Мокьюментари смотреть онлайн бесплатно в хорошем качестве
    Вы не можете начинать темы
    Вы не можете отвечать на сообщения
    Вы не можете редактировать свои сообщения
    Вы не можете удалять свои сообщения
    Вы не можете голосовать в опросах
    Вы не можете прикреплять файлы к сообщениям
    Вы можете скачивать файлы