Доктор Стрэндж

Лицензия

Добыча

MVO

Дом дракона

1 сезон

Тор

Лицензия

Мэверик

Лицензия

Там, где раки поют

MVO

Властелин колец

1 сезон

Ultimate

pack

Рекомендуем

30

Repack

ВАЖНО

ВАЖНО

Ghostwire

RePack

jed

RePack

nioh2

RePack

RDR2

RePack

NEED FOR SPEED™ PAYBACK

RePack

скачать торрент

Кинопоиск HD

Острые козырьки 6 сезон

6 сезон

FAR CRY 6

RePack

скачать торрент

Лицензия

скачать торрент

MVO

1

1 сезон

скачать торрент

1 сезон

скачать торрент

Лицензия

  

Человек против пчелы / Man vs. Bee / Сезон: 1 / Серии: 1-9 из 9 (Дэвид Керр) [2022, Комедия, WEB-DLRip] MVO [HDrezka Studio]

Человек против пчелы через торрент pb.wtf

Размер: 1.55 GB | Добавлен: 3 мес. 2 д. назад | Торрент скачан:72 раза
Смотреть онлайн Человек против пчелы | Скачать   

01-07-2022 19:33 Человек против пчелы Скачать торрент  

Человек против пчелы
Man vs. Bee

Год выпуска: 2022
Страна: Великобритания
Выпущено: Netflix, HouseSitter Productions
Жанр: Комедия
Продолжительность: ~ 00:18:00
Перевод: Профессиональный (многоголосый закадровый) | HDRezka Studio
Субтитры: Pусские (forced)

Режиссер: Дэвид Керр

rating

В ролях: Роуэн Аткинсон, Дэниэл Фирн, Айша Кала, Чиззи Акудолу, Джин Лу, Тони МакКарти, Брендан Мерфи, Ли Байфорд

Описание: Пожилой мужчина, живущий в роскошном особняке, объявляет войну настырной пчеле, которая поселилась на его территории и не хочет покидать облюбованное место. Чтобы изгнать вредное насекомое, герой готов использовать любые средства. В ход идет все, что подвернулось под руку. Не имеет значения, что при этом мужчина терпит серьезные убытки, ведь враждующие стороны разрушают буквально все на своем пути. Но пчела оказывается достойным, а главное, ловким противником.

Качество: WEB-DLRip
Формат: AVI

Видео: 720x384 (1.85:1), 25.000 fps, XviD, 1593 Kbps, 0.23 bit/pixel
Аудио 1: AC3, 48 kHz, 2 ch, 192 kbps - HDRezka Studio
Аудио 2: AC3, 48 kHz, 2 ch, 192 kbps - Original
скриншот  скриншот  скриншот  скриншот  

General
Complete name : Downloads\Man Vs Bee.S01.WEB-DLRip.HDRezka Studio\Man vs. Bee S01.E01.WEB-DLRip.Rus.Eng.by.Сибиряк.avi
Format : AVI
Format/Info : Audio Video Interleave
File size : 278 MiB
Duration : 19 min 30 s
Overall bit rate : 1 992 kb/s
Writing application : VirtualDubMod 1.5.10.2 (build 2540/release)
Writing library : VirtualDubMod build 2540/release
Video #0
ID : 0
Format : MPEG-4 Visual
Format profile : Advanced [email protected]
Format settings : BVOP1
Format settings, BVOP : 1
Format settings, QPel : No
Format settings, GMC : No warppoints
Format settings, Matrix : Default (H.263)
Codec ID : XVID
Codec ID/Hint : XviD
Duration : 19 min 30 s
Bit rate : 1 593 kb/s
Width : 720 pixels
Height : 384 pixels
Display aspect ratio : 1.85:1
Frame rate : 25.000 FPS
Color space : YUV
Chroma subsampling : 4:2:0
Bit depth : 8 bits
Scan type : Progressive
Compression mode : Lossy
Bits/(Pixel*Frame) : 0.230
Stream size : 222 MiB (80%)
Writing library : XviD 69
Audio #1
ID : 1
Format : AC-3
Format/Info : Audio Coding 3
Codec ID : 2000
Duration : 19 min 30 s
Bit rate mode : Constant
Bit rate : 192 kb/s
Channel(s) : 2 channels
Channel positions : Front: L R
Sampling rate : 48.0 kHz
Frame rate : 31.250 FPS (1536 SPF)
Bit depth : 16 bits
Compression mode : Lossy
Stream size : 26.8 MiB (10%)
Alignment : Split accross interleaves
Interleave, duration : 40 ms (1.00 video frame)
Interleave, preload duration : 500 ms
Service kind : Complete Main
Audio #2
ID : 2
Format : AC-3
Format/Info : Audio Coding 3
Codec ID : 2000
Duration : 19 min 30 s
Bit rate mode : Constant
Bit rate : 192 kb/s
Channel(s) : 2 channels
Channel positions : Front: L R
Sampling rate : 48.0 kHz
Frame rate : 31.250 FPS (1536 SPF)
Bit depth : 16 bits
Compression mode : Lossy
Stream size : 26.8 MiB (10%)
Alignment : Split accross interleaves
Interleave, duration : 40 ms (1.00 video frame)
Interleave, preload duration : 500 ms
Service kind : Complete Main

Когда раздача ведётся путём добавления новых серий, при каждом добавлении создётся новый торрент. Чтобы начать докачку новой серии, пользователям необходимо сделать следующее:
(1) остановить скачивание,
(2) удалить старый торрент у себя из клиента (старые серии удалять не надо),
(3) скачать новый торрент и запустить его у себя в клиенте вместо старого, при этом указать клиенту путь в старую папку, куда и должно происходить скачивание новых серий.
Ваш клиент при этом должен произвести хеширование (проверку) старой папки (если не производит сам - помогите ему сделать это), и будет докачивать только те серии, которых у вас ещё нет. Старые серии при этом не удаляются, а продолжают раздаваться!
Eсли вы уже удалили старые серии, то предотвратить повторную закачку старых серий можно, отжав галочку в соответсвующих местах при запуске нового торрента. По возможности, желательно не удалять старые серии как можно дольше, чтобы релизёр не столько продолжал раздавать старые серии, а смог сконцентрироваться на новых.




Скачать Человек против пчелы через торрент https://i120.fastpic.org/big/2022/0701/08/8a0502521ad638c99e779db2e020b908.jpg Скачать, смотреть онлайн Человек против пчелы бесплантно в хорошем качестве Описание: Пожилой мужчина, живущий в роскошном особняке, объявляет войну настырной пчеле, которая поселилась на его территории и не хочет ... 9.3 10 4
Торрент: Зарегистрирован [2022-07-01 19:33] · скачан: 72 раз
Статус: √ проверено
Размер: 1.55 GB
Как cкачать? Как скачать Человек против пчелы через торрент | UTorrent

% Раздел Тема Автор DL S | L
Зарубежные сериалы [ 6.04 GB ] Человек против пчелы / Man vs. Bee / Сезон: 1 / Серия: 1-9 из 9 | NewComers | DLRip 1080p GEKADOL Скачать
4 | 1
Зарубежные сериалы [ 6.02 GB ] Человек против пчелы / Man vs. Bee / Сезон: 1 / Серии: 1-9 из 9 | NewComers | 1080p bober100 Скачать
1 | 0
Зарубежные сериалы [ 3.79 GB ] Человек против пчелы / Man vs. Bee / Сезон: 1 / Серия: 1-9 из 9 | HDRezka Studio | 1080p killermax2013 Скачать
1 | 0
Зарубежные сериалы [ 1.59 GB ] Человек против пчелы / Man vs. Bee / Сезон: 1 / Серия: 1-9 из 9 | NewComers | WEBRip GEKADOL Скачать
3 | 0

28-11-2019 20:33  

Отключить вcю реклaмy на сайте

11-07-2022 13:02 Человек против пчелы Скачать торрент  

снова тупая пиндосина. у англичан своебразный юмор.гондоны они .



    Дорогой пользователь! Огромная просьба, поблагодарите релизера, оцените раздачу и оставьте свои комментарий, если Вы скачали Человек против пчелы через торрент бесплатно!!
    Комментировать посты могут только пользователи прошедшие не сложную регистрацию
    Показать сообщения:    


    Человек против пчелы через торрент
    Скачать бесплатно Человек против пчелы
    Человек против пчелы скачать торрент
    Человек против пчелы смотреть онлайн
    Cкачать фильм Человек против пчелы бесплатно
    Человек против пчелы скачать торрент в хорошем качестве
    Человек против пчелы смотреть онлайн бесплатно в хорошем качестве
    Вы не можете начинать темы
    Вы не можете отвечать на сообщения
    Вы не можете редактировать свои сообщения
    Вы не можете удалять свои сообщения
    Вы не можете голосовать в опросах
    Вы не можете прикреплять файлы к сообщениям
    Вы можете скачивать файлы