Достать ножи: Стеклянная луковица

MVO

Добыча

Дубляж

Уэнсдэй

1 сезон

Тор

Дубляж

13 клиническая

1 сезон

Жестокая ночь

MVO

Одни из нас

1 сезон

Deluxe

pack

Рекомендуем

30

Пиратка

ВАЖНО

ВАЖНО

Ghostwire

Пиратка

jed

RePack

nioh2

RePack

RDR2

RePack

NEED FOR SPEED™ PAYBACK

RePack

скачать торрент

Кинопоиск HD

Острые козырьки 6 сезон

6 сезон

FAR CRY 6

RePack

скачать торрент

Лицензия

скачать торрент

MVO

1

1 сезон

скачать торрент

1 сезон

скачать торрент

Лицензия

  

Легенда́риум То́лкина / Tolkien's legendarium [2001 - 2014, фэнтези, приключения, драма, HyBriDRip - HEVC 1080p 10 bit 60 FPS, Дубляж, MVO]

Легенда́риум То́лкина через торрент pb.wtf

Раздают: 1 [ 0 KB/s ] Качают: 3 [ 0 KB/s ]
Размер: 40.22 GB | Добавлен: 7 мес. назад | Торрент скачан:18 раз
| Скачать | Поддержите нас   

02-07-2022 10:59 Легенда́риум То́лкина Скачать торрент  

Tolkien's LegeNdaRium

Легенда́риум То́лкина (англ. Tolkien's legendarium) — в исследованиях литературного творчества английского писателя Дж. Р. Р. Толкина, общепринятое обозначение совокупности произведений и незавершённых работ автора, посвящённых вымышленному миру Арда и, в частности, Средиземью.
The Lord of the Rings The Fellowship of the Ring
«Power can be held in the smallest of things...»

Год выпуска: 2001
Страна: Новая Зеландия, США
Жанр: фэнтези, приключения, драма
Продолжительность: 03:28:19
Перевод: Mногоголосый профессиональный | Позитив-Мультимедиа
Субтитры: русские | Позитив-Мультимедиа
Режиссер: Питер Джексон
В ролях: Элайджа Вуд, Иэн Маккеллен, Шон Эстин, Вигго Мортенсен, Билли Бойд, Доминик Монахэн, Джон Рис-Дэвис, Орландо Блум, Шон Бин, Иэн Холм
Описание: Сказания о Средиземье — это хроника Великой войны за Кольцо, длившейся не одну тысячу лет. Тот, кто владел Кольцом, получал неограниченную Влacть, но был обязан служить злу. Тихая деревня, где живут хоббиты. Придя на 111-й день рождения к своему старому другу Бильбо Бэггинсу, волшебник Гэндальф начинает вести разговор о кольце, которое Бильбо нашел много лет назад. Это кольцо принадлежало когда-то темному властителю Средиземья Саурону, и оно дает большую Влacть своему обладателю. Теперь Саурон хочет вернуть себе Влacть над Средиземьем. Бильбо отдает Кольцо племяннику Фродо, чтобы тот отнёс его к Роковой Горе и уничтожил.
Мировая премьера: 10 декабря 2001

Качество: HyBriDRip - HEVC 1080p Rip by DD2D3
Формат: MKV
Видео: V_MPEGH/ISO/HEVC; 1920x1080 (16:9); 3684 Kbps; 60 fps; 0,030 bpp
Аудио: русский; AC3; 448 Kbps; CBR; 6 ch ||
Навигация по главам: есть
Доп. инфо: [Extended Cut] [Open Matte]
Доп. инфо: Экспериментальный релиз, только для поклонников фильма и open matte.
Гибрид получен путем автоматического совмещения широкоэкранного (2.35:1) BDRip, полноэкранного (4:3) DVD Fullscreen и WEB-DL Amazon (16:9) плагином AutoOverlay с целью получить версию фильма с максимальным наполнением кадра. Высота кадра по всему фильму плавающая (в зависимости от наполнения).


Общее
Уникальный идентификатор : 198519721249087847748092223684635173095 (0x955981F023F4CA4A950673F0251EA0E7)
Полное имя : E:\Tolkien's Legendarium (2002 - 2014) HyBriDRip - HEVC 1080p 10 bit 60 FPS\The Lord of the Rings The Fellowship of the Ring (2001) [Extended Cut] [Open Matte] HyBriDRip - HEVC 1080p 10 bit 60 FPS.mkv
Формат : Matroska
Версия формата : Version 2
Размер файла : 6,13 Гбайт
Продолжительность : 3 ч. 28 м.
Общий поток : 4 216 Кбит/сек
Название фильма : Rip by from DD2D3
Дата кодирования : UTC 2022-06-23 11:22:02
Программа кодирования : mkvmerge v6.9.1 ('Blue Panther') 32bit built on Apr 18 2014 18:15:44
Библиотека кодирования : libebml v1.3.0 + libmatroska v1.4.1
Attachments : poster

Видео
Идентификатор : 1
Формат : HEVC
Формат/Информация : High Efficiency Video Coding
Профиль формата : Main [email protected]@Main
Идентификатор кодека : V_MPEGH/ISO/HEVC
Продолжительность : 3 ч. 28 м.
Битрейт : 3 684 Кбит/сек
Ширина : 1 920 пикселей
Высота : 1 080 пикселей
Соотношение сторон : 16:9
Режим частоты кадров : Постоянный
Частота кадров : 60,000 кадров/сек
Цветовое пространство : YUV
Субдискретизация насыщенности : 4:2:0
Битовая глубина : 10 бит
Бит/(Пиксели*Кадры) : 0.030
Размер потока : 5,36 Гбайт (87%)
Язык : Russian
Default : Да
Forced : Нет

Аудио
Идентификатор : 2
Формат : AC-3
Формат/Информация : Audio Coding 3
Коммерческое название : Dolby Digital
Идентификатор кодека : A_AC3
Продолжительность : 3 ч. 28 м.
Вид битрейта : Постоянный
Битрейт : 448 Кбит/сек
Каналы : 6 каналов
Channel layout : L R C LFE Ls Rs
Частота : 48,0 КГц
Частота кадров : 31,250 кадров/сек (1536 SPF)
Метод сжатия : С потерями
Размер потока : 668 Мбайт (11%)
Заголовок : Многоголосый, Позитив-Мультимедиа
Язык : Russian
Service kind : Complete Main
Default : Да
Forced : Нет
Statistics Tags Issue : mkvmerge v30.1.0 ('Forever And More') 64-bit 2019-05-08 05:46:02 / mkvmerge v6.9.1 ('Blue Panther') 32bit built on Apr 18 2014 18:15:44 2022-06-23 11:22:02
FromStats_BitRate : 448000
FromStats_Duration : 03:28:19.008000000
FromStats_FrameCount : 390594
FromStats_StreamSize : 699944448

Текст
Идентификатор : 3
Формат : ASS
Идентификатор кодека : S_TEXT/ASS
Идентификатор кодека/Информация : Advanced Sub Station Alpha
Метод сжатия : Без потерь
Заголовок : Позитив-Мультимедиа, стилизованные
Язык : Russian
Default : Нет
Forced : Нет
Statistics Tags Issue : mkvmerge v30.1.0 ('Forever And More') 64-bit 2019-05-08 05:46:02 / mkvmerge v6.9.1 ('Blue Panther') 32bit built on Apr 18 2014 18:15:44 2022-06-23 11:22:02
FromStats_BitRate : 93
FromStats_Duration : 03:19:34.120000000
FromStats_FrameCount : 1746
FromStats_StreamSize : 140358

Меню
00:00:00.000 : en: 1. Prologue: One Ring To Rule Them All...
00:07:36.790 : en: 2. Concerning Hobbits
00:10:35.552 : en: 3. The Shire
00:15:39.856 : en: 4. Very Old Friends
00:19:58.489 : en: 5. A Long-expected Party
00:25:32.614 : en: 6. Farewell Dear Bilbo
00:29:57.379 : en: 7. Keep It Secret, Keep It Safe
00:32:10.679 : en: 8. The Account Of Isildur
00:34:51.798 : en: 9. At The Green Dragon
00:36:18.176 : en:10. The Shadow of the Past
00:45:04.160 : en:11. The Passing of the Elves
00:46:44.301 : en:12. Saruman The White
00:51:21.412 : en:13. A Short Cut to Mushrooms
00:55:12.434 : en:14. Bucklebury Ferry
00:57:30.072 : en:15. At the Sign of The Prancing Pony
01:03:31.516 : en:16. The Nazgul
01:07:16.115 : en:17. The Midgewater Marshes
01:08:53.588 : en:18. The Spoiling Of Isengard
01:10:35.940 : en:19. A Knife in the Dark
01:15:15.386 : en:20. The Caverns of Isengard
01:17:46.620 : en:21. Flight to the Ford
01:24:11.546 : en:22. Rivendell
01:26:12.501 : en:23. Many Meetings
01:29:41.585 : en:24. The Fate of the Ring
01:33:14.672 : en:25. The Sword That Was Broken
01:35:54.082 : en:26. The Evenstar
01:37:32.972 : en:27. The Council of Elrond
01:45:38.400 : en:28. Gilraen's Memorial
01:46:53.226 : en:29. Bilbo's Gifts
01:48:36.621 : en:30. The Departure of the Fellowship
01:49:54.031 : en:31. The Ring Goes South
01:52:59.842 : en:32. The Pass of Caradhras
01:57:46.128 : en:33. Moria
02:04:11.513 : en:34. A Journey in the Dark
02:10:41.861 : en:35. Balin's Tomb
02:20:06.592 : en:36. The Bridge of Khazad-Dum
02:29:48.048 : en:37. Lothlorien
02:33:00.699 : en:38. Caras Galadhorn
02:40:17.719 : en:39. The Mirror of Galadriel
02:45:57.725 : en:40. The Fighting Uruk-Hai
02:47:39.076 : en:41. Farewell to Lorien
02:53:01.607 : en:42. The Great River
02:57:53.857 : en:43. Parth Galen
03:04:21.619 : en:44. The Breaking of the Fellowship
03:11:37.555 : en:45. The Departure of Boromir
03:14:19.884 : en:46. The Road Goes Ever On
03:20:38.053 : en:47. Credits

© Оформление by DD2D3
The Lord of the Rings The Two Towers
«Приключение продолжается»

Год выпуска: 2002
Страна: Новая Зеландия, США
Жанр: фэнтези, приключения, драма
Продолжительность: 03:43:58
Перевод: Mногоголосый профессиональный | Позитив-Мультимедиа
Субтитры: русские | Позитив-Мультимедиа
Режиссер: Питер Джексон
В ролях: Элайджа Вуд, Шон Эстин, Орландо Блум, Вигго Мортенсен, Иэн МакКеллен, Доминик Монаган, Миранда Отто, Джон Рис-Дэвис, Энди Серкис, Билли Бойд, Лив Тайлер, Кейт Бланшетт, Бернард Хилл, Кристофер Ли, Брюс Олпресс, Джон Бах, Сала Бэйкер, Джед Брофи, Сэм Комери, Брэд Дуриф, Кэлам Гиттинс, Брюс Хопкинс, Пэрис Хоу Стрю, Нэтаниэл Лис, Джон Ли, Робби Магасива, Робин Малкольм, Крэйг Паркер, Брюс Филлипс, Роберт Поллок, Оливия Теннет, Рэй Трикитт, Карл Урбан, Стефан Уре, Хьюго Уивинг, Дэвид Уэнэм
Описание: Братство распалось, но Кольцо Всевластья должно быть уничтожено. Фродо и Сэм вынуждены доверить свои жизни Голлуму, который взялся провести их к вратам Мордора. Громадная Армия Сарумана приближается: члены братства и их союзники готовы принять бой. Битва за Средиземье продолжается.
Мировая премьера: 5 декабря 2002

Качество: HyBriDRip - HEVC 1080p Rip by DD2D3
Формат: MKV
Видео: V_MPEGH/ISO/HEVC; 1920x1080 (16:9); 3664 Kbps; 60 fps; 0,029 bpp
Аудио: русский; AC3; 640 Kbps; CBR; 6 ch ||
Навигация по главам: есть
Доп. инфо: [Extended Cut] [Open Matte]
Доп. инфо: Экспериментальный релиз, только для поклонников фильма и open matte.
Гибрид получен путем автоматического наложения широкоэкранного (2.35:1) BD поверх полноэкранного (4:3) DVD Fullscreen и/или WEB-DL Amazon (16:9) плагином AutoOverlay с целью получить версию фильма с максимальным наполнением кадра. Высота кадра по всему фильму плавающая (в зависимости от наполнения). Цвет каждой сцены выбирался индивидуально на базе одного из трех исходников: TC, DC или WEB-DL. Также в релизе активно использовался этот релиз. Логотип STARZ убран с помощью низкобитрейтной WEB-DL


Общее
Уникальный идентификатор : 224668119971294788961749900346038396789 (0xA9058187EAF0BBE58A25FFC37F73A775)
Полное имя : E:\Tolkien's Legendarium (2002 - 2014) HyBriDRip - HEVC 1080p 10 bit 60 FPS\The Lord of the Rings The Two Towers (2002) [Extended Cut] [Open Matte] HyBriDRip - HEVC 1080p 10 bit 60 FPS.mkv
Формат : Matroska
Версия формата : Version 2
Размер файла : 6,87 Гбайт
Продолжительность : 3 ч. 43 м.
Общий поток : 4 392 Кбит/сек
Название фильма : Rip by from DD2D3
Дата кодирования : UTC 2022-06-25 19:21:11
Программа кодирования : mkvmerge v6.9.1 ('Blue Panther') 32bit built on Apr 18 2014 18:15:44
Библиотека кодирования : libebml v1.3.0 + libmatroska v1.4.1
Attachments : poster

Видео
Идентификатор : 1
Формат : HEVC
Формат/Информация : High Efficiency Video Coding
Профиль формата : Main [email protected]@Main
Идентификатор кодека : V_MPEGH/ISO/HEVC
Продолжительность : 3 ч. 43 м.
Битрейт : 3 664 Кбит/сек
Ширина : 1 920 пикселей
Высота : 1 080 пикселей
Соотношение сторон : 16:9
Режим частоты кадров : Постоянный
Частота кадров : 60,000 кадров/сек
Цветовое пространство : YUV
Субдискретизация насыщенности : 4:2:0
Битовая глубина : 10 бит
Бит/(Пиксели*Кадры) : 0.029
Размер потока : 5,73 Гбайт (83%)
Default : Да
Forced : Нет

Аудио
Идентификатор : 2
Формат : AC-3
Формат/Информация : Audio Coding 3
Коммерческое название : Dolby Digital
Идентификатор кодека : A_AC3
Продолжительность : 3 ч. 43 м.
Вид битрейта : Постоянный
Битрейт : 640 Кбит/сек
Каналы : 6 каналов
Channel layout : L R C LFE Ls Rs
Частота : 48,0 КГц
Частота кадров : 31,250 кадров/сек (1536 SPF)
Метод сжатия : С потерями
Размер потока : 1,00 Гбайт (15%)
Заголовок : MVO Позитив-Мультимедиа
Язык : Russian
Service kind : Complete Main
Default : Да
Forced : Нет
Statistics Tags Issue : mkvmerge v56.1.0 ('My Friend') 64-bit 2021-04-15 11:37:39 / mkvmerge v6.9.1 ('Blue Panther') 32bit built on Apr 18 2014 18:15:44 2022-06-25 19:21:11
FromStats_BitRate : 640000
FromStats_Duration : 03:43:46.816000000
FromStats_FrameCount : 419588
FromStats_StreamSize : 1074145280

Текст
Идентификатор : 3
Формат : ASS
Идентификатор кодека : S_TEXT/ASS
Идентификатор кодека/Информация : Advanced Sub Station Alpha
Метод сжатия : Без потерь
Заголовок : Full Style Позитив-Мультимедиа
Язык : Russian
Default : Нет
Forced : Нет
Statistics Tags Issue : mkvmerge v56.1.0 ('My Friend') 64-bit 2021-04-15 11:37:39 / mkvmerge v6.9.1 ('Blue Panther') 32bit built on Apr 18 2014 18:15:44 2022-06-25 19:21:11
FromStats_BitRate : 89
FromStats_Duration : 03:33:46.590000000
FromStats_FrameCount : 2059
FromStats_StreamSize : 143893

Меню
00:00:00.000 : en: 1. The Foundations of Stone
00:04:08.748 : en: 2. Elven Rope
00:06:10.829 : en: 3. The Taming of Smeagol
00:14:44.967 : en: 4. The Uruk-hai
00:17:06.609 : en: 5. The Three Hunters
00:19:17.948 : en: 6. The Burning of the Westfold
00:23:07.094 : en: 7. Massacre at the Fords of Isen
00:23:58.312 : en: 8. The Banishment of omer
00:27:09.044 : en: 9. On the Trail of the Uruk-hai
00:28:03.181 : en:10. Night Camp at Fangorn
00:31:38.230 : en:11. The Riders of Rohan
00:35:45.518 : en:12. The Fate of Merry and Pippin
00:38:17.879 : en:13. Treebeard
00:41:47.797 : en:14. The Passage of the Marshes
00:50:49.755 : en:15. The White Rider
00:58:19.413 : en:16. The Song of the Entwives
01:00:40.178 : en:17. The Heir of Numenor
01:02:48.306 : en:18. The Black Gate is Closed
01:08:05.999 : en:19. Ent Draft
01:12:41.732 : en:20. The King of the Golden Hall
01:24:17.344 : en:21. The Funeral of Theodred
01:25:41.636 : en:22. Simbelmyne on the Burial Mounds
01:27:34.332 : en:23. The King's Decision
01:30:45.523 : en:24. Brego
01:32:30.587 : en:25. The Ring of Barahir
01:34:31.040 : en:26. A Daughter of Kings
01:35:57.043 : en:27. Exodus from Edoras
01:37:02.316 : en:28. The Forests of Ithilien
01:38:43.960 : en:29. Gollum and Smeagol
01:41:14.819 : en:30. Of Herbs and Stewed Rabbit
01:46:34.200 : en:31. Dwarf Women
01:47:16.993 : en:32. One of the Dunedain
01:49:46.851 : en:33. The Evenstar
01:54:53.407 : en:34. The Wolves of Isengard
02:01:31.596 : en:35. Helm's Deep
02:04:11.715 : en:36. Isengard Unleashed
02:06:48.163 : en:37. The Grace of the Valar
02:08:25.719 : en:38. Arwen's Fate
02:12:08.483 : en:39. The Story Foreseen from Lorien
02:14:34.462 : en:40. The Window on the West
02:18:24.066 : en:41. Sons of the Steward
02:23:03.637 : en:42. The Forbidden Pool
02:30:25.328 : en:43. Aragorn's Return
02:35:58.578 : en:44. Entmoot
02:37:18.450 : en:45. The Glittering Caves
02:40:26.721 : en:46. "Where Is the Horse and the Rider?"
02:42:11.451 : en:47. "Don't Be Hasty, Master Meriadoc!"
02:43:02.126 : en:48. The Host of the Eldar
02:46:36.215 : en:49. The Batter of the Hornburg
02:52:58.597 : en:50. Old Entish
02:54:35.652 : en:51. The Breach of the Deeping Wall
02:58:00.774 : en:52. The Entmoot Decides
02:59:45.921 : en:53. The Retreat to the Hornburg
03:05:48.408 : en:54. Master Peregrin's Plan
03:07:13.493 : en:55. Osgiliath
03:07:48.236 : en:56. The Last March of the Ents
03:10:17.760 : en:57. The Nazgul Attack
03:12:49.745 : en:58. Forth Eorlingas
03:17:28.232 : en:59. The Flooding of Isengard
03:19:54.586 : en:60. The Tales That Really Mattered...
03:24:39.871 : en:61. Fangorn Comes to Helm's Deep
03:25:31.424 : en:62. The Final Tally
03:26:12.964 : en:63. Flotsam and Jetsam
03:28:16.755 : en:64. Farewell to Faramir
03:30:46.613 : en:65. "The Battle for Middle-Earth is About to Begin"
03:32:26.296 : en:66. Gollum's Plan
03:34:50.440 : en:67. End Credits

© Оформление by DD2D3
The Lord of the Rings The Return of the King
«There can be no triumph without loss. No victory without suffering. No freedom without sacrifice»

Год выпуска: 2003
Страна: Новая Зеландия, США
Жанр: фэнтези, приключения, драма
Продолжительность: 04:23:16
Перевод: Mногоголосый профессиональный | Позитив-Мультимедиа
Субтитры: русские | Позитив-Мультимедиа
Режиссер: Питер Джексон
В ролях: Элайджа Вуд, Шон Эстин, Орландо Блум, Вигго Мортенсен, Иэн МакКеллен, Доминик Монаган, Миранда Отто, Джон Рис-Дэвис, Энди Серкис, Билли Бойд, Лив Тайлер, Кейт Бланшетт, Бернард Хилл, Кристофер Ли, Брюс Олпресс, Джон Бах, Сала Бэйкер, Джед Брофи, Сэм Комери, Брэд Дуриф, Кэлам Гиттинс, Брюс Хопкинс, Пэрис Хоу Стрю, Нэтаниэл Лис, Джон Ли, Робби Магасива, Робин Малкольм, Крэйг Паркер, Брюс Филлипс, Роберт Поллок, Оливия Теннет, Рэй Трикитт, Карл Урбан, Стефан Уре, Хьюго Уивинг, Дэвид Уэнэм
Описание: Повелитель сил тьмы Саурон направляет свою бесчисленную армию под стены Минас-Тирита, крепости Последней Надежды. Он предвкушает близкую победу, но именно это мешает ему заметить две крохотные фигурки — хоббитов, приближающихся к Роковой Горе, где им предстоит уничтожить Кольцо Всевластья.
Мировая премьера: 1 декабря 2003

Качество: HyBriDRip - HEVC 1080p Rip by DD2D3
Формат: MKV
Видео: V_MPEGH/ISO/HEVC; 1920x1080 (16:9); 3664 Kbps; 60 fps; 0,029 bpp
Аудио: русский; AC3; 640 Kbps; CBR; 6 ch ||
Навигация по главам: есть
Доп. инфо: [Extended Cut]


Общее
Уникальный идентификатор : 238567426299854680659129595532570345846 (0xB37A6A3DDFD9144EAA80243110C14176)
Полное имя : E:\Tolkien's Legendarium (2002 - 2014) HyBriDRip - HEVC 1080p 10 bit 60 FPS\The Lord of the Rings The Return of the King (2003) [Extended Cut] BDRip - HEVC 1080p 10 bit 60 FPS.mkv
Формат : Matroska
Версия формата : Version 2
Размер файла : 7,67 Гбайт
Продолжительность : 4 ч. 23 м.
Общий поток : 4 170 Кбит/сек
Название фильма : Rip by from DD2D3
Дата кодирования : UTC 2022-06-27 15:48:24
Программа кодирования : mkvmerge v6.9.1 ('Blue Panther') 32bit built on Apr 18 2014 18:15:44
Библиотека кодирования : libebml v1.3.0 + libmatroska v1.4.1
Attachments : poster

Видео
Идентификатор : 1
Формат : HEVC
Формат/Информация : High Efficiency Video Coding
Профиль формата : Main [email protected]@Main
Идентификатор кодека : V_MPEGH/ISO/HEVC
Продолжительность : 4 ч. 23 м.
Битрейт : 3 639 Кбит/сек
Ширина : 1 920 пикселей
Высота : 800 пикселей
Высота оригинала : 796 пикселей
Соотношение сторон : 2,40:1
Соотношение сторон в оригинале : 2,40:1
Режим частоты кадров : Постоянный
Частота кадров : 60,000 кадров/сек
Цветовое пространство : YUV
Субдискретизация насыщенности : 4:2:0
Битовая глубина : 10 бит
Бит/(Пиксели*Кадры) : 0.039
Размер потока : 6,69 Гбайт (87%)
Язык : Russian
Default : Да
Forced : Нет

Аудио
Идентификатор : 2
Формат : AC-3
Формат/Информация : Audio Coding 3
Коммерческое название : Dolby Digital
Идентификатор кодека : A_AC3
Продолжительность : 4 ч. 23 м.
Вид битрейта : Постоянный
Битрейт : 448 Кбит/сек
Каналы : 6 каналов
Channel layout : L R C LFE Ls Rs
Частота : 48,0 КГц
Частота кадров : 31,250 кадров/сек (1536 SPF)
Метод сжатия : С потерями
Размер потока : 844 Мбайт (11%)
Заголовок : Многоголосый закадровый, Позитив-Мультимедиа
Язык : Russian
Service kind : Complete Main
Default : Нет
Forced : Нет

Текст
Идентификатор : 3
Формат : ASS
Идентификатор кодека : S_TEXT/ASS
Идентификатор кодека/Информация : Advanced Sub Station Alpha
Метод сжатия : Без потерь
Язык : Russian
Default : Да
Forced : Нет

Меню
00:00:00.000 : en: 1. The Finding of the Ring
00:06:24.342 : en: 2. Journey to the Cross-Roads
00:09:21.394 : en: 3. The Road to Isengard
00:11:21.848 : en: 4. The Voice of Saruman
00:18:23.311 : en: 5. Return to Edoras
00:23:05.009 : en: 6. Gollum's Villany
00:27:03.330 : en: 7. Eowyn's Dream
00:29:00.697 : en: 8. The Palantir
00:37:06.433 : en: 9. Arwen's Vision
00:40:02.567 : en:10. The Reforging of Narsil
00:42:03.229 : en:11. Minas Tirith
00:47:52.203 : en:12. The Decline of Gondor
00:50:18.641 : en:13. Cross-Roads of the Fallen King
00:52:18.761 : en:14. "The Deep Breath Before the Plunge"
00:55:35.332 : en:15. Minas Morgul
00:59:36.406 : en:16. Sam's Warning
01:00:23.703 : en:17. Pippin's Task
01:00:50.605 : en:18. Osgiliath Invaded
01:04:30.075 : en:19. The Lighting of the Beacons
01:07:16.032 : en:20. Theoden's Decision
01:10:35.314 : en:21. The Fall of Osgiliath
01:14:54.824 : en:22. The Wizard's Pupil
01:17:21.971 : en:23. The Stairs of Cirith Ungol
01:19:21.799 : en:24. "Courage Is the Best Defense"
01:20:01.088 : en:25. Peregrin of the Tower Guard
01:21:26.799 : en:26. Allegiance to Denethor
01:23:48.941 : en:27. The Parting of Sam and Frodo
01:29:08.593 : en:28. The Sacrifice of Faramir
01:33:57.590 : en:29. Marshalling at Dunharrow
01:38:08.049 : en:30. Anduril - Flame of the West
01:42:49.705 : en:31. Aragorn Takes the Paths of the Dead
01:45:34.245 : en:32. "No More Despair"
01:46:57.453 : en:33. Dwimorberg - the Haunted Mountain
01:49:24.433 : en:34. The Muster of Rohan
01:51:09.997 : en:35. The Paths of the Dead
01:58:39.696 : en:36. The Siege of Gondor
02:07:41.500 : en:37. The Corsairs of Umbar
02:08:42.779 : en:38. Shelob's Lair
02:17:50.451 : en:39. Merry's Simple Courage
02:19:40.770 : en:40. Grond - The Hammer of the Underworld
02:20:17.139 : en:41. The Tomb of the Stewards
02:21:50.775 : en:42. Breaking the Gate of Gondor
02:22:57.591 : en:43. The Choices of Master Samwise
02:28:59.328 : en:44. Denethor's Madness
02:30:04.643 : en:45. The Witch King's Hour
02:32:29.663 : en:46. The Ride of the Rohirrim
02:36:44.084 : en:47. The Pyre of Denethor
02:38:51.169 : en:48. The Battle of Pelennor Fields
02:43:46.714 : en:49. "A Far Green Country"
02:45:17.138 : en:50. The Nazugl and His Prey
02:47:03.077 : en:51. The Black Ships
02:47:55.504 : en:52. Shieldmaiden of Rohan
02:48:39.757 : en:53. Victory at Minas Tirith
02:51:15.454 : en:54. The Passing of Theoden
02:53:18.160 : en:55. Oaths Fulfilled
02:54:25.102 : en:56. The Houses of Healing
02:56:41.113 : en:57. Pippin Looks After Merry
02:57:33.165 : en:58. The Tower of Cirith Ungol
03:04:29.080 : en:59. The Last Debate
03:06:11.433 : en:60. Aragorn Masters the Palantir
03:07:40.522 : en:61. The Captain and the White Lady
03:08:30.655 : en:62. In the Company of Orcs
03:12:12.043 : en:63. The Land of Shadow
03:16:23.753 : en:64. The Mouth of Sauron
03:19:39.657 : en:65. The Black Gate Opens
03:23:13.454 : en:66. "I Can't Carry It for You... But I Can Carry You"
03:25:26.253 : en:67. The Last Move
03:26:29.358 : en:68. Mount Doom
03:28:25.432 : en:69. "The Eagles Are Coming!"
03:28:59.758 : en:70. The Crack of Doom
03:34:38.012 : en:71. Sauron Defeated
03:36:51.396 : en:72. The End of All Things
03:40:20.396 : en:73. The Fellowship Reunited
03:42:43.497 : en:74. The Return of the King
03:47:36.540 : en:75. Homeward Bound
03:52:18.447 : en:76. The Grey Havens
04:01:37.047 : en:77. End Credits
04:12:44.463 : en:78. Fan Club Credits

© Оформление by DD2D3
The Hobbit An Unexpected Journey
«From the smallest beginnings come the greatest legends»

Год выпуска: 2012
Страна: Новая Зеландия, США
Жанр: фэнтези, приключения, драма
Продолжительность: 03:02:30
Перевод: Дублированный | Blu-ray CEE
Субтитры: русские | Blu-ray CEE
Режиссер: Питер Джексон
В ролях: Мартин Фриман, Иэн МакКеллен, Ричард Армитидж, Джеймс Несбитт, Кен Стотт, Грэм МакТавиш, Уильям Кирчер, Стивен Хантер, Дин О'Горман, Эйдан Тернер, Джон Коллен, Питер Хэмблтон, Джед Брофи, Энди Серкис, Кейт Бланшетт, Элайджа Вуд, Хьюго Уивинг, Кристофер Ли, Иэн Холм, Марк Хэдлоу
Описание: Хоббит Бильбо Бэггинс пускается в грандиозный поход, целью которого является отвоевание утраченного королевства гномов Эребор у дракона Смауга. Совершенно неожиданно с хоббитом налаживает контакт волшебник Гэндальф Серый. Так Бильбо находит себя и присоединяется к компании тринадцати гномов, возглавляемых легендарным воином Торином Дубощитом. Их путешествие пройдёт через Дикий Край, предательские земли, населенные гоблинами и орками, смертоносными варгами, гигантскими пауками, меняющим шкуры народом и волшебниками.

И хотя их цель находится на Востоке, среди пустошей Одинокой Горы, сначала им придется выбраться из туннелей гоблинов, где Бильбо встретит существо, которое изменит его жизнь навсегда - Голлума.
Мировая премьера: 28 ноября 2012

Качество: HyBriDRip - HEVC 1080p Rip by DD2D3
Формат: MKV
Видео: V_MPEGH/ISO/HEVC; 1920x1080 (16:9); 3663 Kbps; 60 fps; 0,029 bpp
Аудио: русский; AC3; 448 Kbps; CBR; 6 ch ||
Навигация по главам: есть
Доп. инфо: [Extended Cut] [Open Matte]
Доп. инфо: Экспериментальный релиз, только для поклонников фильма и open matte.
Гибрид получен путем автоматического наложения широкоэкранного (2.35:1) Blu-ray поверх HDTV (16:9) плагином AutoOverlay с целью получить версию фильма с максимальным наполнением кадра. Высота кадра по всему фильму плавающая (в зависимости от наполнения). Недостающая картинка по углам замылена. Для скрытия логотипа канала в HDTV использовалась WEB-DL ivi. ОМ-сцены суммарно составляют 1ч 57 мин. Остальное (1 ч 5 мин) - копия с Blu-ray.


Общее
Уникальный идентификатор : 171821146502530049597301806997489768858 (0x81438C92A85650AB9820317336EED99A)
Полное имя : E:\Tolkien's Legendarium (2002 - 2014) HyBriDRip - HEVC 1080p 10 bit 60 FPS\The Hobbit An Unexpected Journey (2012) [Extended Cut] [Open Matte] HyBriDRip - HEVC 1080p 10 bit 60 FPS.mkv
Формат : Matroska
Версия формата : Version 2
Размер файла : 5,35 Гбайт
Продолжительность : 3 ч. 2 м.
Общий поток : 4 195 Кбит/сек
Название фильма : Rip by from DD2D3
Дата кодирования : UTC 2022-06-29 07:03:49
Программа кодирования : mkvmerge v6.9.1 ('Blue Panther') 32bit built on Apr 18 2014 18:15:44
Библиотека кодирования : libebml v1.3.0 + libmatroska v1.4.1
Attachments : poster

Видео
Идентификатор : 1
Формат : HEVC
Формат/Информация : High Efficiency Video Coding
Профиль формата : Main [email protected]@Main
Идентификатор кодека : V_MPEGH/ISO/HEVC
Продолжительность : 3 ч. 2 м.
Битрейт : 3 664 Кбит/сек
Ширина : 1 920 пикселей
Высота : 1 080 пикселей
Соотношение сторон : 16:9
Режим частоты кадров : Постоянный
Частота кадров : 60,000 кадров/сек
Цветовое пространство : YUV
Субдискретизация насыщенности : 4:2:0
Битовая глубина : 10 бит
Бит/(Пиксели*Кадры) : 0.029
Размер потока : 4,67 Гбайт (87%)
Default : Да
Forced : Нет

Аудио
Идентификатор : 2
Формат : AC-3
Формат/Информация : Audio Coding 3
Коммерческое название : Dolby Digital
Идентификатор кодека : A_AC3
Продолжительность : 3 ч. 2 м.
Вид битрейта : Постоянный
Битрейт : 448 Кбит/сек
Каналы : 6 каналов
Channel layout : L R C LFE Ls Rs
Частота : 48,0 КГц
Частота кадров : 31,250 кадров/сек (1536 SPF)
Метод сжатия : С потерями
Размер потока : 585 Мбайт (11%)
Заголовок : Blu-ray CEE
Язык : Russian
Service kind : Complete Main
Default : Да
Forced : Нет
Statistics Tags Issue : mkvmerge v30.1.0 ('Forever And More') 64-bit 2019-10-04 15:43:19 / mkvmerge v6.9.1 ('Blue Panther') 32bit built on Apr 18 2014 18:15:44 2022-06-29 07:03:49
FromStats_BitRate : 448000
FromStats_Duration : 03:02:29.856000000
FromStats_FrameCount : 342183
FromStats_StreamSize : 613191936

Текст
Идентификатор : 3
Формат : ASS
Идентификатор кодека : S_TEXT/ASS
Идентификатор кодека/Информация : Advanced Sub Station Alpha
Метод сжатия : Без потерь
Заголовок : Full Style
Язык : Russian
Default : Нет
Forced : Нет
Statistics Tags Issue : mkvmerge v30.1.0 ('Forever And More') 64-bit 2019-10-04 15:43:19 / mkvmerge v6.9.1 ('Blue Panther') 32bit built on Apr 18 2014 18:15:44 2022-06-29 07:03:49
FromStats_BitRate : 92
FromStats_Duration : 03:00:54.350000000
FromStats_FrameCount : 2155
FromStats_StreamSize : 125049

Меню
00:00:00.000 : en:Prologue: The Fall of Erebor
00:10:11.903 : en:"In a Hole in the Ground There Lived a Hobbit"
00:14:08.723 : en:Very Old Friends
00:17:27.255 : en:Mr. Baggins
00:18:44.623 : en:An Unexpected Party
00:23:16.604 : en:"Blunt the Knives"
00:27:59.469 : en:A Map, A Key and A Contract
00:36:04.871 : en:"Misty Mountains"
00:41:17.266 : en:"...The World Ahead"
00:46:30.830 : en:The Battle of Azanulbizar
00:53:04.181 : en:Radagast the Brown
00:58:07.651 : en:Trollshaws
00:59:55.300 : en:Roast Mutton
01:10:42.405 : en:A Troll-hoard
01:15:01.831 : en:The Hill of Sorcery
01:18:52.811 : en:Warg-scouts
01:24:56.925 : en:Rivendell
01:30:34.429 : en:A Short Rest
01:34:10.603 : en:Moon Runes
01:37:24.464 : en:The Defiler
01:39:03.479 : en:The Last Homely House
01:41:40.803 : en:The White Council
01:50:22.533 : en:"Why the Halfling?"
01:52:59.773 : en:Over Hill
01:59:06.348 : en:Under Hill
02:03:57.513 : en:The Great Goblin
02:09:51.575 : en:Riddles in the Dark
02:23:21.426 : en:Biter and Beater
02:25:18.877 : en:The Ring
02:26:31.199 : en:Escape from Goblin Town
02:30:52.919 : en:The Pity of Bilbo
02:33:00.546 : en:"Home is Behind..."
02:35:52.593 : en:Out of the Frying Pan...
02:46:51.210 : en:A Good Omen
02:52:21.373 : en:Credits

© Оформление by DD2D3
The Hobbit The Desolation of Smaug
«Beyond darkness... beyond desolation... lies the greatest danger of all»

Год выпуска: 2013
Страна: Новая Зеландия, США
Жанр: фэнтези, приключения, драма
Продолжительность: 03:06:35
Перевод: Дублированный | Blu-ray CEE
Субтитры: русские | Blu-ray CEE
Режиссер: Питер Джексон
В ролях: Мартин Фриман, Ричард Армитедж, Иэн МакКеллен, Эванджелин Лилли, Орландо Блум, Люк Эванс, Бенедикт Камбербэтч, Ли Пейс, Кен Стотт, Эйдан Тернер...
Описание: Продолжение путешествия хоббита Бильбо Бэггинса, волшебника Гэндальфа и 13 отважных гномов. Их компания обязана завершить своё путешествие к Одинокой горе. Там они должны встретиться с величайшей опасностью из всех — созданием куда более ужасающим, чем все их прошлые противники, которое проверит на прочность не только их мужество, но крепость их дружбы и правильность выбранного пути, — драконом Смаугом.
Мировая премьера: 2 декабря 2013

Качество: HyBriDRip - HEVC 1080p Rip by DD2D3
Формат: MKV
Видео: V_MPEGH/ISO/HEVC; 1920x1080 (16:9); 3647 Kbps; 60 fps; 0,029 bpp
Аудио: русский; AC3; 448 Kbps; CBR; 6 ch ||
Навигация по главам: есть
Доп. инфо: [Extended Cut] [Open Matte]
Доп. инфо: Экспериментальный релиз, только для поклонников фильма и open matte.
Гибрид получен путем автоматического наложения широкоэкранного (2.35:1) Blu-ray поверх HDTV (16:9) плагином AutoOverlay с целью получить версию фильма с максимальным наполнением кадра. Высота кадра по всему фильму плавающая (в зависимости от наполнения). Недостающая картинка по углам замылена. Для скрытия логотипа канала на HDTV использовалась WEB-DL ivi. ОМ-сцены суммарно составляют 1 ч 5 мин. Остальное (2 ч 1 мин) - копия с Blu-ray.


Общее
Уникальный идентификатор : 202794264108298796139038996676315597132 (0x9890C12C212F12A4BD4BF196A602494C)
Полное имя : E:\Tolkien's Legendarium (2002 - 2014) HyBriDRip - HEVC 1080p 10 bit 60 FPS\The Hobbit The Desolation of Smaug (2013) [Extended Cut] [Open Matte] HyBriDRip - HEVC 1080p 10 bit 60 FPS.mkv
Формат : Matroska
Версия формата : Version 2
Размер файла : 5,45 Гбайт
Продолжительность : 3 ч. 6 м.
Общий поток : 4 179 Кбит/сек
Название фильма : Rip by from DD2D3
Дата кодирования : UTC 2022-06-30 16:42:33
Программа кодирования : mkvmerge v6.9.1 ('Blue Panther') 32bit built on Apr 18 2014 18:15:44
Библиотека кодирования : libebml v1.3.0 + libmatroska v1.4.1
Attachments : poster

Видео
Идентификатор : 1
Формат : HEVC
Формат/Информация : High Efficiency Video Coding
Профиль формата : Main [email protected]@Main
Идентификатор кодека : V_MPEGH/ISO/HEVC
Продолжительность : 3 ч. 6 м.
Битрейт : 3 648 Кбит/сек
Ширина : 1 920 пикселей
Высота : 1 080 пикселей
Соотношение сторон : 16:9
Режим частоты кадров : Постоянный
Частота кадров : 60,000 кадров/сек
Цветовое пространство : YUV
Субдискретизация насыщенности : 4:2:0
Битовая глубина : 10 бит
Бит/(Пиксели*Кадры) : 0.029
Размер потока : 4,75 Гбайт (87%)
Default : Да
Forced : Нет

Аудио
Идентификатор : 2
Формат : AC-3
Формат/Информация : Audio Coding 3
Коммерческое название : Dolby Digital
Идентификатор кодека : A_AC3
Продолжительность : 3 ч. 6 м.
Вид битрейта : Постоянный
Битрейт : 448 Кбит/сек
Каналы : 6 каналов
Channel layout : L R C LFE Ls Rs
Частота : 48,0 КГц
Частота кадров : 31,250 кадров/сек (1536 SPF)
Метод сжатия : С потерями
Размер потока : 598 Мбайт (11%)
Заголовок : Дубляж
Язык : Russian
Service kind : Complete Main
Default : Да
Forced : Нет
Statistics Tags Issue : mkvmerge v30.1.0 ('Forever And More') 64-bit 2019-11-20 07:23:31 / mkvmerge v6.9.1 ('Blue Panther') 32bit built on Apr 18 2014 18:15:44 2022-06-30 16:42:33
FromStats_BitRate : 448000
FromStats_Duration : 03:06:35.872000000
FromStats_FrameCount : 349871
FromStats_StreamSize : 626968832

Текст
Идентификатор : 3
Формат : ASS
Идентификатор кодека : S_TEXT/ASS
Идентификатор кодека/Информация : Advanced Sub Station Alpha
Метод сжатия : Без потерь
Заголовок : Full style
Язык : Russian
Default : Нет
Forced : Нет
Statistics Tags Issue : mkvmerge v30.1.0 ('Forever And More') 64-bit 2019-11-20 07:23:31 / mkvmerge v6.9.1 ('Blue Panther') 32bit built on Apr 18 2014 18:15:44 2022-06-30 16:42:33
FromStats_BitRate : 85
FromStats_Duration : 03:05:02.230000000
FromStats_FrameCount : 2121
FromStats_StreamSize : 118186

Меню
00:00:00.000 : :The Quest for Erebor
00:07:33.411 : :Wilderland
00:12:00.302 : :The Master Summons
00:12:59.445 : :A Commander of Legions
00:15:55.370 : :Queer Lodgings
00:20:56.922 : :Last of the Skin-Changers
00:23:15.434 : :Where the Shadow Lie
00:25:52.675 : :The Elven-Gate
00:29:59.255 : :Mirkwood
00:38:14.041 : :Flies and Spiders
00:46:43.842 : :The Woodland Realm
00:49:46.315 : :The Elvenking
00:53:19.528 : :King and captain
00:55:10.222 : :Feast of Starlight
00:58:07.858 : :Barrels Out of Bond
01:08:42.326 : :The High Fells
01:12:22.337 : :Bard the Bowman
01:15:45.707 : :The Nature of Evil
01:19:10.162 : :Smuggled Cargo
01:22:46.836 : :Lake-Town
01:25:09.686 : :The Master of Lake-Town
01:28:07.738 : :The World of Men
01:31:15.552 : :The Home of Bard
01:36:02.756 : :"It is Our Fight"
01:37:35.890 : :The Prophecy
01:40:35.404 : :A Warm Welcome
01:45:16.518 : :The Parting of the Company
01:48:44.475 : :The Lonely Mountain
01:50:31.750 : :A Spell of Concealment
01:52:36.541 : :The Hidden Door
01:53:08.448 : :Son of Thror
01:59:16.356 : :On the Doorstep
02:07:11.832 : :Kingsfoil
02:07:39.109 : :The Courage of Hobbits
02:09:22.671 : :The Enemy Revealed
02:12:48.585 : :Inside Information
02:22:00.843 : :The Black Arrow
02:22:43.429 : :In the Dragon's Lair
02:23:17.922 : :Under Arrest
02:24:56.396 : :Bilbo the Burglar
02:26:45.085 : :Smaug the Magnificent
02:29:18.824 : :Orc Attack
02:33:12.975 : :Confrontations
02:34:57.620 : :Elvish Medicine
02:36:13.155 : :Hunter and Hunted
02:37:45.956 : :"She Walks in Starlight"
02:39:08.829 : :A Desperate Plan
02:41:39.940 : :Duel in Lake-Town
02:44:06.002 : :The Forges Relit
02:51:16.683 : :Smaug the Golden
02:56:05.555 : :Credits

© Оформление by DD2D3
The Hobbit The Battle of the Five Armies
«Последнее путешествие в Средиземье»

Год выпуска: 2014
Страна: Новая Зеландия, США
Жанр: фэнтези, приключения, драма
Продолжительность: 02:44:01
Перевод: Дублированный | BD CEE + Yu.Serbin
Субтитры: русские | Blu-ray CEE
Режиссер: Питер Джексон
В ролях: Мартин Фриман, Ричард Армитедж, Иэн МакКеллен, Эванджелин Лилли, Орландо Блум, Люк Эванс, Бенедикт Камбербэтч, Ли Пейс, Кен Стотт, Эйдан Тернер...
Описание: Когда отряд из тринадцати гномов нанимал хоббита Бильбо Бэгинса в качестве взломщика и четырнадцатого, «счастливого», участника похода к Одинокой горе, Бильбо полагал, что его приключения закончатся, когда он выполнит свою задачу — найдет сокровище, которое так необходимо предводителю гномов Торину. Путешествие в Эребор, захваченное драконом Смаугом королевство гномов, оказалось еще более опасным, чем предполагали гномы и даже Гэндальф — мудрый волшебник, протянувший Торину и его отряду руку помощи.
В погоню за гномами устремилась армия орков, ведомых пробудившимся в руинах древним злом, а эльфы и люди, с которыми Бильбо и его товарищам пришлось иметь дело во время путешествия и которые пострадали от последствий желания гномов вернуть свой дом, предъявили права на щедрое вознаграждение — часть сокровищ Одинокой горы. Скоро неподалеку от Одинокой горы встретятся пять армий, и лишь кровопролитная битва определит результаты смелого гномьего похода.
Мировая премьера: 1 декабря 2014

Качество: HyBriDRip - HEVC 1080p Rip by DD2D3
Формат: MKV
Видео: V_MPEGH/ISO/HEVC; 1920x1080 (16:9); 3695 Kbps; 60 fps; 0,030 bpp
Аудио: русский; AC3; 448 Kbps; CBR; 6 ch ||
Навигация по главам: есть
Доп. инфо: [Extended Cut] [Open Matte]


Общее
Уникальный идентификатор : 249287081720485255139568823114129731531 (0xBB8AF20F2283A9559E5120A33367EFCB)
Полное имя : E:\Tolkien's Legendarium (2002 - 2014) HyBriDRip - HEVC 1080p 10 bit 60 FPS\The Hobbit The Battle of the Five Armies (2014) [Extended Cut] [Open Matte] HyBriDRip - HEVC 1080p 10 bit 60 FPS.mkv
Формат : Matroska
Версия формата : Version 2
Размер файла : 4,84 Гбайт
Продолжительность : 2 ч. 44 м.
Общий поток : 4 228 Кбит/сек
Название фильма : Rip by from DD2D3
Дата кодирования : UTC 2022-07-02 08:55:25
Программа кодирования : mkvmerge v6.9.1 ('Blue Panther') 32bit built on Apr 18 2014 18:15:44
Библиотека кодирования : libebml v1.3.0 + libmatroska v1.4.1
Attachments : poster

Видео
Идентификатор : 1
Формат : HEVC
Формат/Информация : High Efficiency Video Coding
Профиль формата : Main [email protected]@Main
Идентификатор кодека : V_MPEGH/ISO/HEVC
Продолжительность : 2 ч. 44 м.
Битрейт : 3 696 Кбит/сек
Ширина : 1 920 пикселей
Высота : 1 080 пикселей
Соотношение сторон : 16:9
Режим частоты кадров : Постоянный
Частота кадров : 60,000 кадров/сек
Цветовое пространство : YUV
Субдискретизация насыщенности : 4:2:0
Битовая глубина : 10 бит
Бит/(Пиксели*Кадры) : 0.030
Размер потока : 4,23 Гбайт (87%)
Default : Да
Forced : Нет

Аудио
Идентификатор : 2
Формат : AC-3
Формат/Информация : Audio Coding 3
Коммерческое название : Dolby Digital
Идентификатор кодека : A_AC3
Продолжительность : 2 ч. 44 м.
Вид битрейта : Постоянный
Битрейт : 448 Кбит/сек
Каналы : 6 каналов
Channel layout : L R C LFE Ls Rs
Частота : 48,0 КГц
Частота кадров : 31,250 кадров/сек (1536 SPF)
Метод сжатия : С потерями
Размер потока : 526 Мбайт (11%)
Заголовок : Дубляж | BD CEE + Yu.Serbin
Язык : Russian
Service kind : Complete Main
Default : Да
Forced : Нет

Текст
Идентификатор : 3
Формат : UTF-8
Идентификатор кодека : S_TEXT/UTF8
Идентификатор кодека/Информация : UTF-8 Plain Text
Заголовок : Full
Язык : Russian
Default : Нет
Forced : Нет

Меню
00:00:00.000 : en:(01)00:00:00:000
00:05:12.395 : en:(02)00:05:12:395
00:12:47.057 : en:(03)00:12:47:057
00:13:19.298 : en:(04)00:13:19:298
00:18:57.426 : en:(05)00:18:57:426
00:23:42.170 : en:(06)00:23:42:170
00:24:56.161 : en:(07)00:24:56:161
00:26:04.563 : en:(08)00:26:04:563
00:27:33.026 : en:(09)00:27:33:026
00:35:45.685 : en:(10)00:35:45:685
00:36:41.282 : en:(11)00:36:41:282
00:40:41.897 : en:(12)00:40:41:897
00:42:01.143 : en:(13)00:42:01:143
00:43:11.755 : en:(14)00:43:11:755
00:46:16.148 : en:(15)00:46:16:148
00:51:27.667 : en:(16)00:51:27:667
00:54:57.961 : en:(17)00:54:57:961
00:56:14.829 : en:(18)00:56:14:829
00:58:31.299 : en:(19)00:58:31:299
01:00:26.956 : en:(20)01:00:26:956
01:02:43.593 : en:(21)01:02:43:593
01:06:10.174 : en:(22)01:06:10:174
01:12:23.296 : en:(23)01:12:23:296
01:17:22.554 : en:(24)01:17:22:554
01:20:36.331 : en:(25)01:20:36:331
01:24:57.216 : en:(26)01:24:57:216
01:28:41.774 : en:(27)01:28:41:774
01:30:52.280 : en:(28)01:30:52:280
01:33:02.158 : en:(29)01:33:02:158
01:35:12.832 : en:(30)01:35:12:832
01:38:32.488 : en:(31)01:38:32:488
01:39:42.893 : en:(32)01:39:42:893
01:41:00.596 : en:(33)01:41:00:596
01:45:03.505 : en:(34)01:45:03:505
01:47:13.635 : en:(35)01:47:13:635
01:49:05.288 : en:(36)01:49:05:288
01:50:03.013 : en:(37)01:50:03:013
01:52:59.606 : en:(38)01:52:59:606
01:53:51.282 : en:(39)01:53:51:282
01:57:15.236 : en:(40)01:57:15:236
02:05:38.572 : en:(41)02:05:38:572
02:12:07.044 : en:(42)02:12:07:044
02:15:26.243 : en:(43)02:15:26:243
02:18:32.512 : en:(44)02:18:32:512
02:20:07.440 : en:(45)02:20:07:440
02:22:27.205 : en:(46)02:22:27:205
02:26:11.596 : en:(47)02:26:11:596
02:30:54.462 : en:(48)02:30:54:462

© Оформление by DD2D3
Tolkien
«A Life of Love, Courage, and Fellowship»

Год выпуска: 2014
Страна: Новая Зеландия, США
Жанр: фэнтези, приключения, драма
Продолжительность: 01:51:42
Перевод: Дублированный | BD CEE + Yu.Serbin
Субтитры: русские | Blu-ray CEE
Режиссер: Доме Карукоски
В ролях: Лили Коллинз, Николас Холт, Лора Доннелли, Патрик Гибсон, Женевьев О'Рейли, Пэм Феррис, Дерек Джекоби, Колм Мини, Крэйг Робертс, Мими Кин, Гарри Джилби, Гильермо Бедуорд, Ниа Гвин
Описание: Картина рассказывает о том, как молодой писатель, будучи изгоем во время обучения, находит дружбу, любовь и вдохновение. Фильм затронет участие Толкина в Первой мировой войне — он служил в британских войсках с 1916-го по 1920-й.
Мировая премьера: 1 декабря 2014

Качество: BDRip - HEVC 1080p Rip by DD2D3
Формат: MKV
Видео: V_MPEGH/ISO/HEVC; 1920x804 (2.40:1); 4450 Kbps; 59,940 fps; 0,048 bpp
Аудио: русский; AC3; 448 Kbps; CBR; 6 ch ||
Навигация по главам: есть


Общее
Уникальный идентификатор : 236363666561532974164164141053901115128 (0xB1D1FC7F71006E1F9D4FE7FAF7A58EF8)
Полное имя : E:\Tolkien's Legendarium (2002 - 2014) HyBriDRip - HEVC 1080p 10 bit 60 FPS\Tolkien (2019) BDRip - HEVC 1080p 10 bit 60 FPS.mkv
Формат : Matroska
Версия формата : Version 2
Размер файла : 3,90 Гбайт
Продолжительность : 1 ч. 51 м.
Общий поток : 4 997 Кбит/сек
Название фильма : Rip by from DD2D3
Дата кодирования : UTC 2022-06-23 12:05:51
Программа кодирования : mkvmerge v6.9.1 ('Blue Panther') 32bit built on Apr 18 2014 18:15:44
Библиотека кодирования : libebml v1.3.0 + libmatroska v1.4.1
Attachments : poster

Видео
Идентификатор : 1
Формат : HEVC
Формат/Информация : High Efficiency Video Coding
Профиль формата : Main [email protected]@Main
Идентификатор кодека : V_MPEGH/ISO/HEVC
Продолжительность : 1 ч. 51 м.
Битрейт : 4 450 Кбит/сек
Ширина : 1 920 пикселей
Высота : 804 пикселя
Соотношение сторон : 2,40:1
Режим частоты кадров : Постоянный
Частота кадров : 59,940 (60000/1001) кадров/сек
Цветовое пространство : YUV
Субдискретизация насыщенности : 4:2:0
Битовая глубина : 10 бит
Бит/(Пиксели*Кадры) : 0.048
Размер потока : 3,47 Гбайт (89%)
Библиотека кодирования : x265 2.3+33-0b7d54dbb71a87a0:[Windows][MSVC 1800][64 bit] 10bit: KG7x [x265.ru]
Настройки программы : cpuid=1173503 / frame-threads=2 / numa-pools=4 / wpp / no-pmode / no-pme / no-psnr / no-ssim / log-level=2 / input-csp=1 / input-res=1920x804 / interlace=0 / total-frames=401721 / level-idc=41 / high-tier=1 / uhd-bd=0 / ref=3 / no-allow-non-conformance / no-repeat-headers / annexb / no-aud / no-hrd / info / hash=0 / no-temporal-layers / open-gop / min-keyint=25 / keyint=250 / bframes=4 / b-adapt=2 / b-pyramid / bframe-bias=0 / rc-lookahead=20 / lookahead-slices=5 / scenecut=40 / no-intra-refresh / ctu=64 / min-cu-size=8 / no-rect / no-amp / max-tu-size=32 / tu-inter-depth=1 / tu-intra-depth=1 / limit-tu=0 / rdoq-level=0 / dynamic-rd=0.00 / no-ssim-rd / signhide / no-tskip / nr-intra=0 / nr-inter=0 / no-constrained-intra / strong-intra-smoothing / max-merge=2 / limit-refs=3 / no-limit-modes / me=1 / subme=2 / merange=57 / temporal-mvp / weightp / no-weightb / no-analyze-src-pics / deblock=0:0 / no-sao / no-sao-non-deblock / rd=3 / no-early-skip / no-rskip / no-fast-intra / no-tskip-fast / no-cu-lossless / no-b-intra / rdpenalty=0 / psy-rd=4.00 / psy-rdoq=0.00 / no-rd-refine / analysis-mode=0 / no-lossless / cbqpoffs=0 / crqpoffs=0 / rc=abr / bitrate=4500 / qcomp=0.60 / qpstep=1 / stats-write=0 / stats-read=2 / cplxblur=20.0 / qblur=0.5 / ipratio=1.10 / pbratio=1.00 / aq-mode=0 / aq-strength=0.00 / no-cutree / zone-count=0 / no-strict-cbr / qg-size=64 / rc-grain / qpmax=69 / qpmin=0 / sar=1 / overscan=0 / videoformat=5 / range=0 / colorprim=2 / transfer=2 / colormatrix=2 / chromaloc=0 / display-window=0 / max-cll=0,0 / min-luma=0 / max-luma=1023 / log2-max-poc-lsb=8 / vui-timing-info / vui-hrd-info / slices=1 / opt-qp-pps / opt-ref-list-length-pps / no-multi-pass-opt-rps / scenecut-bias=0.05 / no-opt-cu-delta-qp / no-aq-motion / no-hdr / no-hdr-opt / refine-level=5 / no-limit-sao
Default : Да
Forced : Нет
Statistics Tags Issue : mkvmerge v10.0.0 ('To Drown In You') 32bit 2021-04-18 11:02:14 / mkvmerge v6.9.1 ('Blue Panther') 32bit built on Apr 18 2014 18:15:44 2022-06-23 12:05:51
FromStats_BitRate : 4543220
FromStats_Duration : 01:51:42.045000000
FromStats_FrameCount : 401721
FromStats_StreamSize : 3806108172

Аудио
Идентификатор : 2
Формат : AC-3
Формат/Информация : Audio Coding 3
Коммерческое название : Dolby Digital
Идентификатор кодека : A_AC3
Продолжительность : 1 ч. 51 м.
Вид битрейта : Постоянный
Битрейт : 448 Кбит/сек
Каналы : 6 каналов
Channel layout : L R C LFE Ls Rs
Частота : 48,0 КГц
Частота кадров : 31,250 кадров/сек (1536 SPF)
Метод сжатия : С потерями
Размер потока : 358 Мбайт (9%)
Заголовок : MVO [License]
Язык : Russian
Service kind : Complete Main
Default : Нет
Forced : Нет
Statistics Tags Issue : mkvmerge v10.0.0 ('To Drown In You') 32bit 2021-04-18 11:02:14 / mkvmerge v6.9.1 ('Blue Panther') 32bit built on Apr 18 2014 18:15:44 2022-06-23 12:05:51
FromStats_BitRate : 448000
FromStats_Duration : 01:51:42.144000000
FromStats_FrameCount : 209442
FromStats_StreamSize : 375320064

Текст
Идентификатор : 3
Формат : UTF-8
Идентификатор кодека : S_TEXT/UTF8
Идентификатор кодека/Информация : UTF-8 Plain Text
Заголовок : Full
Язык : Russian
Default : Нет
Forced : Нет
Statistics Tags Issue : mkvmerge v10.0.0 ('To Drown In You') 32bit 2021-04-18 11:02:14 / mkvmerge v6.9.1 ('Blue Panther') 32bit built on Apr 18 2014 18:15:44 2022-06-23 12:05:51
FromStats_BitRate : 81
FromStats_Duration : 01:45:02.677000000
FromStats_FrameCount : 1386
FromStats_StreamSize : 64328

Меню
00:00:00.000 : en:00:00:00.000
00:06:27.137 : en:00:06:27.137
00:11:09.419 : en:00:11:09.419
00:15:51.117 : en:00:15:51.117
00:21:00.885 : en:00:21:00.885
00:25:53.802 : en:00:25:53.802
00:34:35.031 : en:00:34:35.031
00:37:46.639 : en:00:37:46.639
00:42:01.227 : en:00:42:01.227
00:44:44.098 : en:00:44:44.098
00:47:39.774 : en:00:47:39.774
00:52:04.955 : en:00:52:04.955
00:57:06.423 : en:00:57:06.423
00:59:59.971 : en:00:59:59.971
01:04:39.334 : en:01:04:39.334
01:08:09.002 : en:01:08:09.002
01:11:17.398 : en:01:11:17.398
01:14:29.090 : en:01:14:29.090
01:19:45.656 : en:01:19:45.656
01:26:09.539 : en:01:26:09.539
01:32:11.985 : en:01:32:11.985
01:35:52.497 : en:01:35:52.497
01:40:05.666 : en:01:40:05.666
01:45:06.091 : en:01:45:06.091

© Оформление by DD2D3



Скачать Легенда́риум То́лкина через торрент https://i120.fastpic.org/big/2022/0702/35/05dd8c0fff501d0000fb15d4c3adb535.jpg Скачать, смотреть онлайн Легенда́риум То́лкина бесплантно в хорошем качестве Описание: Сказания о Средиземье — это хроника Великой войны за Кольцо, длившейся не одну тысячу лет. Тот, кто владел Кольцом, получал ... 10 10 6
Info! Золотая раздача, скачанное не засчитывается.
Торрент: Зарегистрирован [2022-07-02 10:59] · скачан: 18 раз
Статус: √ проверено
Размер: 40.22 GB
Как cкачать? Как скачать Легенда́риум То́лкина через торрент | UTorrent

28-11-2019 20:33  


Отключить вcю реклaмy на сайте, в т.ч. и в плеере онлайн просмотра!

02-07-2022 20:00 Легенда́риум То́лкина Скачать торрент  

Огромное спасибо... но можно властелин колец добавить дубляж со ставкой позитиф медия, а так мы и до звездных войн дойдем)))



03-07-2022 07:45 Легенда́риум То́лкина Скачать торрент  

фондорин писал(а):

Огромное спасибо... но можно властелин колец добавить дубляж со ставкой позитиф медия, а так мы и до звездных войн дойдем)))

На расширенную версию дубляжа нету (вставки позитива +супербит), и лучшим считается переводом для расширенной версии позитив



05-07-2022 08:22 Легенда́риум То́лкина Скачать торрент  

раздайте пожалуйста народ



03-09-2022 18:24 Легенда́риум То́лкина Скачать торрент  

В братстве кольца и две башни в эффекте опен майт по углам картинки появляются размытые прямоугольники которые портят весь просмотр



03-09-2022 19:06 Легенда́риум То́лкина Скачать торрент  

Доп. инфо: Экспериментальный релиз, только для поклонников фильма и open matte.
Гибрид получен путем автоматического наложения широкоэкранного (2.35:1) BD поверх полноэкранного (4:3) DVD Fullscreen и/или WEB-DL Amazon (16:9) плагином AutoOverlay с целью получить версию фильма с максимальным наполнением кадра. Высота кадра по всему фильму плавающая (в зависимости от наполнения). Цвет каждой сцены выбирался индивидуально на базе одного из трех исходников: TC, DC или WEB-DL. Также в релизе активно использовался этот релиз. Логотип STARZ убран с помощью низкобитрейтной WEB-DL.



26-01-2023 20:11 Легенда́риум То́лкина Скачать торрент  

Братцы раздайте плиз 16% осталось, уже 3ю неделю докачать не могу



    Дорогой пользователь! Огромная просьба, поблагодарите релизера, оцените раздачу и оставьте свои комментарий, если Вы скачали Легенда́риум То́лкина через торрент бесплатно!!
    Комментировать посты могут только пользователи прошедшие не сложную регистрацию
    Показать сообщения:    


    Легенда́риум То́лкина через торрент
    Скачать бесплатно Легенда́риум То́лкина
    Легенда́риум То́лкина скачать торрент
    Легенда́риум То́лкина смотреть онлайн
    Cкачать фильм Легенда́риум То́лкина бесплатно
    Легенда́риум То́лкина скачать торрент в хорошем качестве
    Легенда́риум То́лкина смотреть онлайн бесплатно в хорошем качестве
    Вы не можете начинать темы
    Вы не можете отвечать на сообщения
    Вы не можете редактировать свои сообщения
    Вы не можете удалять свои сообщения
    Вы не можете голосовать в опросах
    Вы не можете прикреплять файлы к сообщениям
    Вы можете скачивать файлы
    Легенда́риум То́лкина / Tolkien's legendarium [2001 - 2014, фэнтези, приключения, драма, HyBriDRip - HEVC 1080p 10 bit 60 FPS, Дубляж, MVO] смотреть онлайн, скачать торрент picoco.icu