Лицензия

MVO

1

1 сезон

Лицензия

Лицензия

13

MVO

1 сезон

Deluxe Edition

pack

Рекомендуем

30

Repack

ВАЖНО

ВАЖНО

Ghostwire

RePack

jed

RePack

fifa19

RePack

RDR2

RePack

NEED FOR SPEED™ PAYBACK

RePack

Кинопоиск HD

 Острые козырьки 6 сезон

6 сезон

FAR CRY 6

RePack

Лицензия

MVO

1

1 сезон

1 сезон

Лицензия

  

Елизавета / Сезон: 1 / Серия: 1-12 из 12 (Дмитрий Иосифов) [2021, Драма, история, WEBRip]

Елизавета через торрент pb.wtf

Раздают: 3 [ 57 KB/s ]
Размер: 7.38 GB | Добавлен: 2 мес. 26 д. назад | Торрент скачан:144 раза
Смотреть онлайн Елизавета | Скачать   

02-07-2022 18:29 Елизавета Скачать торрент  

Елизавета
Год выпуска: 2021
Страна: Россия
Студия: Кинокомпания "COSMOS studio"
Жанр: Драма, история
Продолжительность: ~ 00:49:00 серия
Перевод: Не требуется
Субтитры: отсутствуют

Режиссер: Дмитрий Иосифов



В ролях: Юлия Хлынина, Александр Балуев, Агриппина Стеклова, Алексей Агранович, Виктор Раков, Кирилл Чернышенко, Кирилл Кузнецов, Артем Ключников, Денис Нурулин, Никита Григорьев, Ангелина Поплавская, Сергей Маховиков, Алиса Лозовская, Роман Васильев, Владимир Кошевой, Сергей Друзьяк, Евгений Серзин, Варвара Шаталова, Алексей Онежен, Светлана Смирнова-Кацагаджиева, Алексей Матошин, Владимир Зайцев, Иван Борисов, Валентина Ляпина, Екатерина Воронина, Пьер Бурель, Галина Безрук, Анатолий Горячев

Описание: В центре истории – судьба Елизаветы, дочери Петра I, ее превращение из веселой и беззаботной юной цесаревны в императрицу. Ей было всего шестнадцать, когда Петр решил оставить на нее созданную им огромную империю, но в первый раз полюбившая Елизавета оказалась не готова пожертвовать чувством ради власти.Завещание отца она воспринимает как проклятие. Елизавета сразу же обретает врагов в лице самых влиятельных придворных – Остермана и Меншикова. И даже родная мать Екатерина видит в ней теперь только соперницу в борьбе за трон.Так юная Елизавета против воли оказывается втянутой в водоворот дворцовых интриг, где, кажется, нет места ни родственным чувствам, ни простой человеческой привязанности…

Качество: WEBRip
Формат: AVI

Видео: XviD, ~ 1600 Кбит/с, 720x400, 25 кадр/с
Аудио: 48.0 kHz, AC3 Dolby Digital, 2/0 (L,R) ch, ~ 192 kbps

General
Complete name : F:\fiiles x\Елизавета.2022.WEB-DLRip.Files-x\02. Елизавета.2022.WEB-DLRip.Files-x.avi
Format : AVI
Format/Info : Audio Video Interleave
File size : 635 MiB
Duration : 49 min 35 s
Overall bit rate : 1 790 kb/s
Writing application : VirtualDubMod 1.5.10.3 | www.virtualdub-fr.org || (build 2550/release)
Writing library : VirtualDubMod build 2550/release

Video
ID : 0
Format : MPEG-4 Visual
Format profile : Advanced [email protected]
Format settings : BVOP1 / Custom Matrix
Format settings, BVOP : 1
Format settings, QPel : No
Format settings, GMC : No warppoints
Format settings, Matrix : Custom
Codec ID : XVID
Codec ID/Hint : XviD
Duration : 49 min 35 s
Bit rate : 1 588 kb/s
Width : 720 pixels
Height : 400 pixels
Display aspect ratio : 16:9
Frame rate : 25.000 FPS
Color space : YUV
Chroma subsampling : 4:2:0
Bit depth : 8 bits
Scan type : Progressive
Compression mode : Lossy
Bits/(Pixel*Frame) : 0.221
Stream size : 563 MiB (89%)
Writing library : XviD 73

Audio
ID : 1
Format : AC-3
Format/Info : Audio Coding 3
Commercial name : Dolby Digital
Codec ID : 2000
Duration : 49 min 35 s
Bit rate mode : Constant
Bit rate : 192 kb/s
Channel(s) : 2 channels
Channel layout : L R
Sampling rate : 48.0 kHz
Frame rate : 31.250 FPS (1536 SPF)
Compression mode : Lossy
Stream size : 68.1 MiB (11%)
Alignment : Split across interleaves
Interleave, duration : 40 ms (1.00 video frame)
Interleave, preload duratio : 500 ms
Service kind : Complete Main




Скачать Елизавета через торрент https://i120.fastpic.org/big/2022/0618/b3/e39067f20219610b824fd0360bac0ab3.jpg Скачать, смотреть онлайн Елизавета бесплантно в хорошем качестве Описание: В центре истории – судьба Елизаветы, дочери Петра I, ее превращение из веселой и беззаботной юной цесаревны в императрицу. Ей ... 8.9 10 8
Торрент: Зарегистрирован [2022-07-02 18:29] · скачан: 144 раз
Статус: √ проверено
Размер: 7.38 GB
Как cкачать? Как скачать Елизавета через торрент | UTorrent

% Раздел Тема Автор DL S | L
Наши сериалы [ 7.4 GB ] Елизавета / Сезон: 1 / Серия: 1-12 из 12 | | WEBRip-AVC bober100 Скачать
2 | 1

28-11-2019 20:33  

Отключить вcю реклaмy на сайте

    Дорогой пользователь! Огромная просьба, поблагодарите релизера, оцените раздачу и оставьте свои комментарий, если Вы скачали Елизавета через торрент бесплатно!!
    Комментировать посты могут только пользователи прошедшие не сложную регистрацию
    Показать сообщения:    


    Елизавета через торрент
    Скачать бесплатно Елизавета
    Елизавета скачать торрент
    Елизавета смотреть онлайн
    Cкачать фильм Елизавета бесплатно
    Елизавета скачать торрент в хорошем качестве
    Елизавета смотреть онлайн бесплатно в хорошем качестве
    Вы не можете начинать темы
    Вы не можете отвечать на сообщения
    Вы не можете редактировать свои сообщения
    Вы не можете удалять свои сообщения
    Вы не можете голосовать в опросах
    Вы не можете прикреплять файлы к сообщениям
    Вы можете скачивать файлы