Всегда рабочее зеркало без VPN и Proxy просто перед .vidak.icu напиши любое слово или цифру, Пример http://iu0v.vidak.icu

Лицензия

MVO

1 сезон

1

1 сезон

iTunes

1 сезон

13

1 сезон

Deluxe

pack

Рекомендуем

Repack

30

ВАЖНО

RePack

MK11

RePack

jed

RePack

fifa19

RePack

RDR2

RePack

NEED FOR SPEED™ PAYBACK

Кинопоиск HD

6 сезон

 Острые козырьки 6 сезон

Все сериалы

все сериалы на PB.wtf

RePack

FAR CRY 5
  
Magnet ссылка

Координаты «Цитадель» / Black Site (Софи Бэнкс-Колома) [2022, Боевик, триллер, HDRip-AVC] DUB [Lucky Production] pb.wtf

Координаты «Цитадель» через торрент pb.wtf

Раздают: 2 [ 0 KB/s ]
Размер: 1.47 GB | Добавлен: 1 мес. 4 д. назад | Торрент скачан:65 раз
Смотреть онлайн Координаты «Цитадель» | Скачать    Ребята, помогите собрать деньги на оплату серверов!!!

03-07-2022 09:51 Координаты «Цитадель» Скачать торрент  

Координаты «Цитадель»
Black Site

Год выпуска: 2022
Страна: США
Выпущено: Asbury Park ProductionsStory Bridge Films, Elevate Production Finance
Жанр: Боевик, триллер
Продолжительность: 01:31:45
Перевод: Профессиональный (дублированный) | Lucky Production
Субтитры: Русские (Full), английские (SDH)

Режиссер: Софи Бэнкс-Колома

rating

В ролях: Мишель Монахэн, Джейсон Кларк, Джей Кортни, Паллави Шарда, Файссал Баззи, Ули Латукефу, Феникс Раэи, Тодд Ласанс, Линкольн Льюис, Джои Виэйра, Люси Барретт, Логан Хаффман, Пачаро Мзембе, Саймон Эльрахи, Джейкоб Тернер, Роберто Зенка, Дебора Тамай, Леон Стрипп

Описание: Когда опаснейший террорист-стратег сбегает из-под стражи, в сверхсекретной подземной тюрьме ЦРУ срабатывает тотальная блокировка, запускающая обратный отсчёт до полного уничтожения цитадели боевыми дронами. Действуя дерзко и жестко, преступник стремительно убирает всех, кто оказался заперт с ним в этих бесконечных лабиринтах. У аналитика Эбби свои счёты с «демоном», потому ей нужно не только выжить, но также придумать, как отомстить своему злейшему врагу. Начинается непредсказуемая игра в кошки-мышки.

Качество: HDRip-AVC
Формат: MKV

Видео: AVC, 1024x428 at 23.976 fps, [email protected], ~1400 kbps
Аудио №1: AC3, 48 kHz, 6 ch, 448 kbps
Аудио №2: AC3, 48 kHz, 6 ch, 448 kbps
скриншот  скриншот  скриншот  скриншот  скриншот  

x264 [info]: frame I:1188 Avg QP:13.00 size: 48476
x264 [info]: frame P:27632 Avg QP:14.76 size: 15928
x264 [info]: frame B:103178 Avg QP:17.27 size: 4516

General
Unique ID : 298756568863607121862543451628396859680 (0xE0C26C15ABE7558F8235247D228BD120)
Complete name : D:Black.Site.2022.HDRip.x264.seleZen.mkv
Format : Matroska
Format version : Version 4
File size : 1.47 GiB
Duration : 1 h 31 min
Overall bit rate : 2 299 kb/s
Movie name : Black.Site.2022.HDRip.x264.seleZen
Encoded date : UTC 10.07.2022 19:46:58
Writing application : mkvmerge v63.0.0 ('Everything') 64-bit
Writing library : libebml v1.4.2 + libmatroska v1.6.4
Cover : Yes
Attachments : cover.jpg / small_cover.jpg

Video
ID : 1
Format : AVC
Format/Info : Advanced Video Codec
Format profile : [email protected]
Format settings : CABAC / 12 Ref Frames
Format settings, CABAC : Yes
Format settings, Reference : 12 frames
Codec ID : V_MPEG4/ISO/AVC
Duration : 1 h 31 min
Bit rate : 1 400 kb/s
Width : 1 024 pixels
Height : 428 pixels
Display aspect ratio : 2.40:1
Frame rate mode : Constant
Frame rate : 23.976 (24000/1001) FPS
Color space : YUV
Chroma subsampling : 4:2:0
Bit depth : 8 bits
Scan type : Progressive
Bits/(Pixel*Frame) : 0.133
Stream size : 919 MiB (61%)
Title : -=DoMiNo=-
Writing library : x264 core 164 by -=DoMiNo=-
Encoding settings : cabac=1 / ref=12 / deblock=1:-2:-2 / analyse=0×3:0×133 / me=umh / subme=11 / psy=1 / psy_rd=1.05:0.05 / mixed_ref=1 / me_range=32 / chroma_me=1 / trellis=2 / 8×8dct=1 / cqm=0 / deadzone=21,11 / fast_pskip=0 / chroma_qp_offset=-3 / threads=17 / lookahead_threads=2 / sliced_threads=0 / nr=0 / decimate=1 / interlaced=0 / bluray_compat=0 / constrained_intra=0 / bframes=9 / b_pyramid=2 / b_adapt=2 / b_bias=0 / direct=1 / weightb=1 / open_gop=0 / weightp=2 / keyint=250 / keyint_min=23 / scenecut=40 / intra_refresh=0 / rc_lookahead=60 / rc=crf / mbtree=0 / crf=17.8 / qcomp=0.60 / qpmin=0 / qpmax=69 / qpstep=4 / vbv_maxrate=50000 / vbv_bufsize=62500 / crf_max=0.0 / nal_hrd=none / filler=0 / ip_ratio=1.35 / pb_ratio=1.25 / aq=3:0.80
Language : English
Default : Yes
Forced : No
Color range : Limited
Color primaries : BT.709
Transfer characteristics : BT.709
Matrix coefficients : BT.709

Audio #1
ID : 2
Format : AC-3
Format/Info : Audio Coding 3
Commercial name : Dolby Digital
Codec ID : A_AC3
Duration : 1 h 31 min
Bit rate mode : Constant
Bit rate : 448 kb/s
Channel (s) : 6 channels
Channel layout : L R C LFE Ls Rs
Sampling rate : 48.0 kHz
Frame rate : 31.250 FPS (1536 SPF)
Compression mode : Lossy
Stream size : 294 MiB (19%)
Title : Dub
Language : Russian
Service kind : Complete Main
Default : Yes
Forced : Yes

Audio #2
ID : 3
Format : AC-3
Format/Info : Audio Coding 3
Commercial name : Dolby Digital
Codec ID : A_AC3
Duration : 1 h 31 min
Bit rate mode : Constant
Bit rate : 448 kb/s
Channel (s) : 6 channels
Channel layout : L R C LFE Ls Rs
Sampling rate : 48.0 kHz
Frame rate : 31.250 FPS (1536 SPF)
Compression mode : Lossy
Stream size : 294 MiB (19%)
Title : Original
Language : English
Service kind : Complete Main
Default : No
Forced : No

Text #1
ID : 4
Format : UTF-8
Codec ID : S_TEXT/UTF8
Codec ID/Info : UTF-8 Plain Text
Duration : 1 h 23 min
Bit rate : 82 b/s
Count of elements : 1170
Stream size : 50.5 KiB (0%)
Title : Full
Language : Russian
Default : No
Forced : No

Text #2
ID : 5
Format : UTF-8
Codec ID : S_TEXT/UTF8
Codec ID/Info : UTF-8 Plain Text
Duration : 1 h 30 min
Bit rate : 65 b/s
Count of elements : 1391
Stream size : 43.8 KiB (0%)
Title : SDH
Language : English
Default : No
Forced : No

Menu
00:00:00.000 : en:Chapter 01
00:10:09.150 : en:Chapter 02
00:19:47.645 : en:Chapter 03
00:27:42.327 : en:Chapter 04
00:36:22.013 : en:Chapter 05
00:45:07.538 : en:Chapter 06
00:53:35.379 : en:Chapter 07
01:01:52.375 : en:Chapter 08
01:10:42.864 : en:Chapter 09
01:22:14.763 : en:Chapter 10

pb.wtf



Скачать Координаты «Цитадель» через торрент https://i4.imageban.ru/out/2022/07/03/ede3ab3f89f33d0f7918cf01d405925a.jpg Скачать, смотреть онлайн Координаты «Цитадель» бесплантно в хорошем качестве Описание: Когда опаснейший террорист-стратег сбегает из-под стражи, в сверхсекретной подземной тюрьме ЦРУ срабатывает тотальная блокировка, ... 9.5 10 13
Торрент: Зарегистрирован [2022-07-10 20:06] · скачан: 65 раз
Статус: √ проверено
Размер: 1.47 GB
Как cкачать? Как скачать Координаты «Цитадель» через торрент | UTorrent

% Раздел Тема Автор DL S | L
Фильмы 2022 [DVDrip, WEB-DLRip, HDrip] (DUB, MVO) [ 1.46 GB ] Координаты «Цитадель» / Black Site [2022 BDRip] DUB [Lucky Production] bober100 Скачать
16 | 3
Фильмы 2022 [DVDrip, WEB-DLRip, HDrip] (DUB, MVO) [ 745 MB ] Координаты «Цитадель» / Black Site [2022 BDRip] DUB [Lucky Production] bober100 Скачать
5 | 0
Фильмы [HD 720p, 1080p] (Хороший звук DUB, MVO) [ 2.79 GB ] Координаты «Цитадель» / Black Site [2022 BDRip 720p] DUB [Lucky Production] bober100 Скачать
3 | 1
Фильмы [HD 720p, 1080p] (Хороший звук DUB, MVO) [ 7.08 GB ] Координаты «Цитадель» / Black Site [2022 BDRip 1080p] DUB [Lucky Production] bober100 Скачать
7 | 1
Фильмы (Blu-ray, BD-Remux, HDDVD) [ 19.87 GB ] Координаты «Цитадель» / Black Site [2022 BD Remux 1080p] DUB [Lucky Production] bober100 Скачать
3 | 0
Фильмы 2022 [DVDrip, WEB-DLRip, HDrip] (DUB, MVO) [ 1.59 GB ] Координаты «Цитадель» / Black Site [2022 WEB-DLRip-AVC] DUB [Lucky Production] от ExKinoRay Lithuania Скачать
4 | 0


Последний раз редактировалось: bober100 (2022-07-10 20:06), всего редактировалось 1 раз

28-11-2019 20:33  

Отключить вcю реклaмy на сайте

03-07-2022 16:47 Координаты «Цитадель» Скачать торрент  

Детский бред, шашкой тётка взрывает бронедвери в бункер и руками их раздвигает. Ага.pb.wtf



    Дорогой пользователь! Огромная просьба, поблагодарите релизера, оцените раздачу и оставьте свои комментарий, если Вы скачали Координаты «Цитадель» через торрент бесплатно!
    Комментировать посты могут только пользователи прошедшие не сложную регистрацию
    Показать сообщения:    

    Координаты «Цитадель» через торрент
    Скачать бесплатно Координаты «Цитадель»
    Координаты «Цитадель» скачать торрент
    Координаты «Цитадель» смотреть онлайн
    Cкачать фильм Координаты «Цитадель» бесплатно
    Координаты «Цитадель» скачать торрент в хорошем качестве
    Координаты «Цитадель» смотреть онлайн бесплатно в хорошем качестве


    Вы можете начинать темы
    Вы можете отвечать на сообщения
    Вы не можете редактировать свои сообщения
    Вы не можете удалять свои сообщения
    Вы не можете голосовать в опросах
    Вы не можете прикреплять файлы к сообщениям
    Вы можете скачивать файлы