Всегда рабочее зеркало без VPN и Proxy просто перед .vidak.icu напиши любое слово или цифру, Пример http://sl37.vidak.icu

MVO

MVO

1 сезон

1

1 сезон

iTunes

1 сезон

13

1 сезон

Deluxe

pack

Рекомендуем

Repack

30

ВАЖНО

RePack

MK11

RePack

jed

RePack

fifa19

RePack

RDR2

RePack

NEED FOR SPEED™ PAYBACK

Кинопоиск HD

6 сезон

 Острые козырьки 6 сезон

Все сериалы

все сериалы на PB.wtf

RePack

FAR CRY 5
  
Magnet ссылка

Смерть в прерии / Terror on the Prairie (Майкл Полиш) [2022, Триллер, Драма, Вестерн, WEBRip-AVC] MVO [Jaskier] от ExKinoRay pb.wtf

Смерть в прерии через торрент pb.wtf

Раздают: 4 [ 0 KB/s ]
Размер: 1.82 GB | Добавлен: 1 мес. 4 д. назад | Торрент скачан:151 раз
Смотреть онлайн Смерть в прерии | Скачать    Ребята, помогите собрать деньги на оплату серверов!!!

03-07-2022 17:10 Смерть в прерии Скачать торрент  


Смерть в прерии / Terror on the Prairie
Информация о фильме:
Название: Смерть в прерии
Оригинальное название: Terror on the Prairie
Год выхода: 2022
Жанр: Триллер, Драма, Вестерн
Режиссер: Майкл Полиш
В ролях: Джина Карано, Ник Сирси, Дональд Серроне, Самира Армстронг, Хит Фриман, Маттиас Хьюз, Гэбриел -Кейн Дэй Льюис, Трэвис Миллз, Иззи Маршалл, Джереми Гауна, Том Драгт, Тайлер Фишер, Джозайя Нельсон

Описание: В центре повествования семья американских первопроходцев, которая пытается обосноваться в прериях Монтаны и становится объектом нападения жестокой банды. Сопротивление бандитам возглавляет женщина.



Страна: США
Студия: Bonfire Legend, The Daily Wire
Продолжительность: 01:47:13
Перевод: Профессиональный (многоголосый, закадровый) - Jaskier



Информация о файле:
Кодек: AVC
Формат: MKV
Качество: WEBRip-AVC
Видео: MPEG-4 AVC, 1024x428, 23.976 fps, 2050 kbps
Аудио RU: AC3, 2 ch, 48 kHz, 192 kbps
Аудио EN: AAC, 2 ch, 48 kHz, 192 kbps



x264 info: frame I:1221 Avg QP:10.60 size: 65168
x264 info: frame P:34100 Avg QP:12.87 size: 23159
x264 info: frame B:118917 Avg QP:14.71 size: 6540
General
Unique ID : 281218793366141127357714628390680814432 (0xD390C4FE664BEEE843332C17A9C46360)
Complete name : D:uTorrentРипы wolf1245Terror on the Prairie.2022.MVO.Jaskier.x264.WEBRip-AVC.[wolf1245.ExKinoRay].mkv
Format : Matroska
Format version : Version 4
File size : 1.82 GiB
Duration : 1 h 47 min
Overall bit rate : 2 435 kb/s
Movie name : Terror on the Prairie.2022.MVO.Jaskier.x264.WEBRip-AVC.[wolf1245.ExKinoRay]
Encoded date : UTC 2022-07-03 16:44:48
Writing application : mkvmerge v68.0.0 ('The Curtain') 64-bit
Writing library : libebml v1.4.2 + libmatroska v1.6.4
Video
ID : 1
Format : AVC
Format/Info : Advanced Video Codec
Format profile : [email protected]
Format settings : CABAC / 12 Ref Frames
Format settings, CABAC : Yes
Format settings, Reference frames : 12 frames
Codec ID : V_MPEG4/ISO/AVC
Duration : 1 h 47 min
Bit rate : 2 050 kb/s
Width : 1 024 pixels
Height : 428 pixels
Display aspect ratio : 2.40:1
Frame rate mode : Constant
Frame rate : 23.976 (24000/1001) FPS
Color space : YUV
Chroma subsampling : 4:2:0
Bit depth : 8 bits
Scan type : Progressive
Bits/(Pixel*Frame) : 0.195
Stream size : 1.53 GiB (84%)
Title : -=[wolf1245.ExKinoRay]=-
Writing library : x264 core 163 r3060 5db6aa6
Encoding settings : cabac=1 / ref=12 / deblock=1:-2:-1 / analyse=0x3:0x133 / me=umh / subme=10 / psy=1 / psy_rd=0.00:0.15 / mixed_ref=1 / me_range=32 / chroma_me=1 / trellis=2 / 8x8dct=1 / cqm=0 / deadzone=22,11 / fast_pskip=1 / chroma_qp_offset=-1 / threads=10 / lookahead_threads=2 / sliced_threads=0 / nr=0 / decimate=0 / interlaced=0 / bluray_compat=0 / constrained_intra=0 / bframes=10 / b_pyramid=2 / b_adapt=2 / b_bias=10 / direct=3 / weightb=1 / open_gop=0 / weightp=2 / keyint=240 / keyint_min=24 / scenecut=40 / intra_refresh=0 / rc_lookahead=100 / rc=2pass / mbtree=0 / bitrate=2050 / ratetol=1.0 / qcomp=0.60 / qpmin=0 / qpmax=69 / qpstep=4 / cplxblur=20.0 / qblur=0.5 / vbv_maxrate=50000 / vbv_bufsize=62500 / nal_hrd=none / filler=0 / ip_ratio=1.40 / pb_ratio=1.30 / aq=3:0.90
Language : English
Default : Yes
Forced : No
Color range : Limited
Color primaries : BT.709
Matrix coefficients : BT.709
Audio #1
ID : 2
Format : AC-3
Format/Info : Audio Coding 3
Commercial name : Dolby Digital
Codec ID : A_AC3
Duration : 1 h 47 min
Bit rate mode : Constant
Bit rate : 192 kb/s
Channel(s) : 2 channels
Channel layout : L R
Sampling rate : 48.0 kHz
Frame rate : 31.250 FPS (1536 SPF)
Compression mode : Lossy
Stream size : 147 MiB (8%)
Title : MVO | Jaskier | RUS
Language : Russian
Service kind : Complete Main
Default : Yes
Forced : No
Audio #2
ID : 3
Format : AAC LC
Format/Info : Advanced Audio Codec Low Complexity
Codec ID : A_AAC-2
Duration : 1 h 47 min
Bit rate : 192 kb/s
Channel(s) : 2 channels
Channel layout : L R
Sampling rate : 48.0 kHz
Frame rate : 46.875 FPS (1024 SPF)
Compression mode : Lossy
Stream size : 147 MiB (8%)
Title : Original | ENG
Language : English
Default : No
Forced : No
Релиз от:
Автор релиза:
pb.wtf



Скачать Смерть в прерии через торрент http://i4.imageban.ru/out/2022/07/03/1631fd1e44cd6609e9b166852113b0f1.png Скачать, смотреть онлайн Смерть в прерии бесплантно в хорошем качестве Описание: В центре повествования семья американских первопроходцев, которая пытается обосноваться в прериях Монтаны и становится объектом ... 9.7 10 6
Торрент: Зарегистрирован [2022-07-03 17:10] · скачан: 151 раз
Статус: T временная
Размер: 1.82 GB
Как cкачать? Как скачать Смерть в прерии через торрент | UTorrent

28-11-2019 20:33  

Отключить вcю реклaмy на сайте

    Дорогой пользователь! Огромная просьба, поблагодарите релизера, оцените раздачу и оставьте свои комментарий, если Вы скачали Смерть в прерии через торрент бесплатно!
    Комментировать посты могут только пользователи прошедшие не сложную регистрацию
    Показать сообщения:    

    Смерть в прерии через торрент
    Скачать бесплатно Смерть в прерии
    Смерть в прерии скачать торрент
    Смерть в прерии смотреть онлайн
    Cкачать фильм Смерть в прерии бесплатно
    Смерть в прерии скачать торрент в хорошем качестве
    Смерть в прерии смотреть онлайн бесплатно в хорошем качестве


    Вы можете начинать темы
    Вы можете отвечать на сообщения
    Вы не можете редактировать свои сообщения
    Вы не можете удалять свои сообщения
    Вы не можете голосовать в опросах
    Вы не можете прикреплять файлы к сообщениям
    Вы можете скачивать файлы