Всегда рабочее зеркало без VPN и Proxy просто перед .vidak.icu напиши любое слово или цифру, Пример http://xtfr.vidak.icu

Лицензия

MVO

1 сезон

1

1 сезон

iTunes

1 сезон

13

1 сезон

Deluxe

pack

Рекомендуем

Repack

30

ВАЖНО

RePack

MK11

RePack

jed

RePack

fifa19

RePack

RDR2

RePack

NEED FOR SPEED™ PAYBACK

Кинопоиск HD

6 сезон

 Острые козырьки 6 сезон

Все сериалы

все сериалы на PB.wtf

RePack

FAR CRY 5
  
Magnet ссылка

Одержимые / The Possessed (Крис Сан) [2021 г., ужасы, WEB-DLRip, Дубляж "iTunes"] pb.wtf

Одержимые через торрент pb.wtf

Раздают: 1 [ 0 KB/s ]
Размер: 719 MB | Добавлен: 1 мес. 14 д. назад | Торрент скачан:31 раз
Смотреть онлайн Одержимые | Скачать    Ребята, помогите собрать деньги на оплату серверов!!!

03-07-2022 17:37 Одержимые Скачать торрент  

Одержимые / The Possessed
Год выпуска: 2021
Страна: Австралия / Giddy Up Films, Nexus Files Studios, OZPIX Entertainment
Жанр: ужасы
Продолжительность: 01:37:17
Перевод: Дубляж (iTunes)

Режиссер: Крис Сан

rating

В ролях: Джон Джаррэтт, Линкольн Льюис, Лорен Гримсон, Энджи Кент, Джейд Кевин Фостер, Симона Бьюкэнэн, Мелисса Ткауц, Роми Пулье, Шон Линч, Мелисса Белл

Описание: Джейкоб Чендлер — обычный человек с необыкновенным даром. Попав в аварию, он обнаружил в себе способности экзорциста и теперь с помощью племянника Лиама начинает исполнять ритуалы изгнания демонов. Вскоре они начинают замечать, что одержимых становится все больше и больше.

Качество: WEB-DLRip
Формат: AVI
Видео кодек: DivX
Аудио кодек: MP3
Видео: 640x272 (2.35:1), 24.000 fps, DivX Codec 4.x ~895 kbps avg, 0.21 bit/pixel
Аудио: 48 kHz, MPEG Layer 3, 2 ch, ~128.00 kbps avg

Общее
Полное имя : G:\ФИЛЬМЫ\Одержимые.2021.D.WEB-DLRip.avi
Формат : AVI
Формат/Информация : Audio Video Interleave
Размер файла : 719 Мбайт
Продолжительность : 1 ч. 37 м.
Общий поток : 1 033 Кбит/сек
Программа кодирования : VirtualDubMod 1.5.10.3 | www.virtualdub-fr.org || (build 2550/release)
Библиотека кодирования : VirtualDubMod build 2550/release

Видео
Идентификатор : 0
Формат : MPEG-4 Visual
Профиль формата : Advanced [email protected]
Настройки формата : BVOP2
Параметр BVOP формата : 2
Параметр QPel формата : Нет
Параметр GMC формата : Без точки перехода
Параметр матрицы формата : Default (MPEG)
Идентификатор кодека : DIVX
Идентификатор кодека/Информация : Project Mayo
Идентификатор кодека/Подсказка : DivX 4
Продолжительность : 1 ч. 37 м.
Битрейт : 896 Кбит/сек
Ширина : 640 пикселей
Высота : 272 пикселя
Соотношение сторон : 2,35:1
Частота кадров : 24,000 кадра/сек
Цветовое пространство : YUV
Субдискретизация насыщенности : 4:2:0
Битовая глубина : 8 бит
Тип развёртки : Прогрессивная
Метод сжатия : С потерями
Бит/(Пиксели*Кадры) : 0.214
Размер потока : 624 Мбайт (87%)
Библиотека кодирования : XviD 1.2.1 (UTC 2008-12-04)

Аудио
Идентификатор : 1
Формат : MPEG Audio
Версия формата : Version 1
Профиль формата : Layer 3
Настройки формата : Joint stereo / MS Stereo
Идентификатор кодека : 55
Идентификатор кодека/Подсказка : MP3
Продолжительность : 1 ч. 37 м.
Вид битрейта : Постоянный
Битрейт : 128 Кбит/сек
Каналы : 2 канала
Частота : 48,0 КГц
Частота кадров : 41,667 кадра/сек (1152 SPF)
Метод сжатия : С потерями
Размер потока : 89,1 Мбайт (12%)
Выравнивание : Соединение по промежуткам
Продолжительность промежутка : 42 мс. (1,00 видеокадр)
Время предзагрузки промежутка : 504 мс.
Библиотека кодирования : LAME3.99r
Настройки программы : -m j -V 4 -q 2 -lowpass 17 -b 128

ReportBy : MediaInfoLib - v22.03
CreatedOn : UTC 2022-07-03 17:27:01

pb.wtf



Скачать Одержимые через торрент https://i120.fastpic.org/big/2022/0703/9d/5a383be8bdabea66786d589561fdf39d.jpg Скачать, смотреть онлайн Одержимые бесплантно в хорошем качестве Описание: Джейкоб Чендлер — обычный человек с необыкновенным даром. Попав в аварию, он обнаружил в себе способности экзорциста и теперь с ... 7 10 3
Торрент: Зарегистрирован [2022-07-03 17:37] · скачан: 31 раз
Статус: √ проверено
Размер: 719 MB
Как cкачать? Как скачать Одержимые через торрент | UTorrent

% Раздел Тема Автор DL S | L
T Фильмы 2016 (Звук TS, Cam, VO, DVO) [ 747 MB ] Эксперимент «Одержимость» / The Possession Experiment [2016 HDRip] / Любительский одноголосый [Xixidok] Sherif Скачать
1 | 0
T Фильмы 2016 (Звук TS, Cam, VO, DVO) [ 1.27 GB ] Эксперимент «Одержимость» / The Possession Experiment [2016 HDRip] VO [Xixidok] bober100 Скачать
1 | 0
T Релизы по Парсеру [Игры, Сериалы и Фильмы и другое...] [ 1.37 GB ] Эксперимент «Одержимость» / The Possession Experiment [2016 WEB-DLRip] / Любительский [Синема УС] Sherif Скачать
1 | 0
Фильмы 2014 [DVDrip, WEB-DLRip, HDrip] [ 1.46 GB ] Одержимость Майкла Кинга / The Possession of Michael King [2014 HDRip-AVC от Ворон] DUB Ворон Скачать
2 | 0
T Фильмы 2014 [DVDrip, WEB-DLRip, HDrip] [ 1.46 GB ] Одержимость Майкла Кинга / The Possession of Michael King [2014 HDRip ] / Чистый звук Ворон Скачать
1 | 0
Фильмы с авторской озвучкой [ 1.46 GB ] Одержимость Майкла Кинга / The Possession of Michael King [2014 HDRip Авторский одноголосый "А.Дольский"] coc900 Скачать
1 | 0
T Фильмы [HD 720p, 1080p] (Хороший звук DUB, MVO) [ 3.6 GB ] Одержимость Майкла Кинга / The Possession of Michael King [2014 BDRip 720p][Чистый звук] Anonymous Скачать
1 | 0

28-11-2019 20:33  

Отключить вcю реклaмy на сайте

    Дорогой пользователь! Огромная просьба, поблагодарите релизера, оцените раздачу и оставьте свои комментарий, если Вы скачали Одержимые через торрент бесплатно!
    Комментировать посты могут только пользователи прошедшие не сложную регистрацию
    Показать сообщения:    

    Одержимые через торрент
    Скачать бесплатно Одержимые
    Одержимые скачать торрент
    Одержимые смотреть онлайн
    Cкачать фильм Одержимые бесплатно
    Одержимые скачать торрент в хорошем качестве
    Одержимые смотреть онлайн бесплатно в хорошем качестве


    Вы не можете начинать темы
    Вы не можете отвечать на сообщения
    Вы не можете редактировать свои сообщения
    Вы не можете удалять свои сообщения
    Вы не можете голосовать в опросах
    Вы не можете прикреплять файлы к сообщениям
    Вы можете скачивать файлы