Всегда рабочее зеркало без VPN и Proxy просто перед .vidak.icu напиши любое слово или цифру, Пример http://r5q5.vidak.icu

MVO

MVO

1 сезон

1

1 сезон

iTunes

1 сезон

13

1 сезон

Deluxe

pack

Рекомендуем

Repack

30

ВАЖНО

RePack

MK11

RePack

jed

RePack

fifa19

RePack

RDR2

RePack

NEED FOR SPEED™ PAYBACK

Кинопоиск HD

6 сезон

 Острые козырьки 6 сезон

Все сериалы

все сериалы на PB.wtf

RePack

FAR CRY 5
  
Magnet ссылка

Афера по-неаполитански / Benvenuti in casa Esposito (Джанлука Ансанелли) [2021, комедия, WEB-DLRip-AVC] MVO [Кириллица] от ExKinoRay pb.wtf

Афера по-неаполитански через торрент pb.wtf

Размер: 1.99 GB | Добавлен: 1 мес. 3 д. назад | Торрент скачан:38 раз
Смотреть онлайн Афера по-неаполитански | Скачать    Ребята, помогите собрать деньги на оплату серверов!!!

04-07-2022 14:34 Афера по-неаполитански Скачать торрент  


Афера по-неаполитански / Benvenuti in casa Esposito
Информация о фильме:
Название: Афера по-неаполитански
Оригинальное название: Benvenuti in casa Esposito
Год выхода: 2021
Жанр: комедия
Режиссер: Джанлука Ансанелли
В ролях: Джованни Эспозито, Антония Труппо, Франческо Ди Лива, Нунциа Скьяно, Сальваторе Мистиконе, Пеппе Ланцетта, Элизабетта Педрацци, Дженнаро Сильвестро, Джованни Феррери, Франческо Прокопио

Описание: Что будет, если у отъявленного неаполитанского бандита сын окажется добродушным простаком? На кого оставить свою «империю»? И, действительно, когда отец умирает, Влacть переходит не к наивному и неуклюжему Тонино, а к более подходящему кандидату. Но Тонино не готов так просто сдаваться и намерен доказать всем, что он достоин быть настоящим главарем банды.



Страна: Италия
Студия: Bartlebyfilm, Vision Distribution, Buonaluna
Продолжительность: 01:38:29
Перевод: Профессиональный (многоголосый, закадровый) - Кириллица



Информация о файле:
Кодек: AVC
Формат: MKV
Качество: WEB-DLRip-AVC
Видео: MPEG-4 AVC, 1024x426, 24.000 fps, 1999kbps
Аудио RU: AC3, 6 ch, 48 kHz, 448 kbps
Аудио ITA: AC3, 6 ch, 48 kHz, 448 kbps
Субтитры: Итальянские



x264 info: frame I:1331 Avg QP:16.07 size: 74533
x264 info: frame P:37583 Avg QP:19.00 size: 20967
x264 info: frame B:102914 Avg QP:20.44 size: 5725
General
Unique ID : 177285037720737405769871561955281886889 (0x855FDB356A962F41B2637F244FD65EA9)
Complete name : D:uTorrentРипы wolf1245Benvenuti in casa Esposito.2021.MVO.KIRILICA.WEB-DLRip-AVC.[wolf1245.ExKinoRay].mkv
Format : Matroska
Format version : Version 4
File size : 1.99 GiB
Duration : 1 h 38 min
Overall bit rate : 2 897 kb/s
Movie name : Benvenuti in casa Esposito.2021.MVO.KIRILICA.WEB-DLRip-AVC.[wolf1245.ExKinoRay]
Encoded date : UTC 2022-07-04 14:19:47
Writing application : mkvmerge v68.0.0 ('The Curtain') 64-bit
Writing library : libebml v1.4.2 + libmatroska v1.6.4
Video
ID : 1
Format : AVC
Format/Info : Advanced Video Codec
Format profile : [email protected]
Format settings : CABAC / 10 Ref Frames
Format settings, CABAC : Yes
Format settings, Reference frames : 10 frames
Codec ID : V_MPEG4/ISO/AVC
Duration : 1 h 38 min
Bit rate : 1 999 kb/s
Width : 1 024 pixels
Height : 426 pixels
Display aspect ratio : 2.40:1
Frame rate mode : Constant
Frame rate : 24.000 FPS
Color space : YUV
Chroma subsampling : 4:2:0
Bit depth : 8 bits
Scan type : Progressive
Bits/(Pixel*Frame) : 0.191
Stream size : 1.38 GiB (69%)
Title : -=[wolf1245.ExKinoRay]=-
Writing library : x264 core 163 r3060 5db6aa6
Encoding settings : cabac=1 / ref=10 / deblock=1:-2:-2 / analyse=0x3:0x133 / me=umh / subme=10 / psy=1 / psy_rd=1.00:0.15 / mixed_ref=1 / me_range=32 / chroma_me=1 / trellis=2 / 8x8dct=1 / cqm=0 / deadzone=22,11 / fast_pskip=1 / chroma_qp_offset=-3 / threads=10 / lookahead_threads=2 / sliced_threads=0 / nr=0 / decimate=0 / interlaced=0 / bluray_compat=0 / constrained_intra=0 / bframes=10 / b_pyramid=2 / b_adapt=2 / b_bias=0 / direct=3 / weightb=1 / open_gop=0 / weightp=2 / keyint=240 / keyint_min=24 / scenecut=40 / intra_refresh=0 / rc_lookahead=100 / rc=2pass / mbtree=0 / bitrate=1999 / ratetol=1.0 / qcomp=0.60 / qpmin=0 / qpmax=69 / qpstep=4 / cplxblur=20.0 / qblur=0.5 / vbv_maxrate=50000 / vbv_bufsize=62500 / nal_hrd=none / filler=0 / ip_ratio=1.40 / pb_ratio=1.30 / aq=1:1.10
Language : Italian
Default : Yes
Forced : No
Audio #1
ID : 2
Format : AC-3
Format/Info : Audio Coding 3
Commercial name : Dolby Digital
Codec ID : A_AC3
Duration : 1 h 38 min
Bit rate mode : Constant
Bit rate : 448 kb/s
Channel(s) : 6 channels
Channel layout : L R C LFE Ls Rs
Sampling rate : 48.0 kHz
Frame rate : 31.250 FPS (1536 SPF)
Compression mode : Lossy
Stream size : 316 MiB (15%)
Title : MVO | Кириллица | RUS
Language : Russian
Service kind : Complete Main
Default : Yes
Forced : No
Audio #2
ID : 3
Format : AC-3
Format/Info : Audio Coding 3
Commercial name : Dolby Digital
Codec ID : A_AC3
Duration : 1 h 38 min
Bit rate mode : Constant
Bit rate : 448 kb/s
Channel(s) : 6 channels
Channel layout : L R C LFE Ls Rs
Sampling rate : 48.0 kHz
Frame rate : 31.250 FPS (1536 SPF)
Compression mode : Lossy
Stream size : 316 MiB (15%)
Title : Original | ITALIAN
Language : Italian
Service kind : Complete Main
Default : No
Forced : No
Text
ID : 4
Format : UTF-8
Codec ID : S_TEXT/UTF8
Codec ID/Info : UTF-8 Plain Text
Duration : 1 h 34 min
Bit rate : 79 b/s
Count of elements : 1303
Stream size : 55.0 KiB (0%)
Language : Italian
Default : No
Forced : No
Релиз от:
Автор релиза:
pb.wtf



Скачать Афера по-неаполитански через торрент http://i120.fastpic.org/big/2022/0704/4a/43052d6491fff76d3f8b40bfd72c9f4a.jpg Скачать, смотреть онлайн Афера по-неаполитански бесплантно в хорошем качестве Описание: Что будет, если у отъявленного неаполитанского бандита сын окажется добродушным простаком? На кого оставить свою «империю»? И, ... 10 10 2
Торрент: Зарегистрирован [2022-07-04 14:34] · скачан: 38 раз
Статус: √ проверено
Размер: 1.99 GB
Как cкачать? Как скачать Афера по-неаполитански через торрент | UTorrent

28-11-2019 20:33  

Отключить вcю реклaмy на сайте

    Дорогой пользователь! Огромная просьба, поблагодарите релизера, оцените раздачу и оставьте свои комментарий, если Вы скачали Афера по-неаполитански через торрент бесплатно!
    Комментировать посты могут только пользователи прошедшие не сложную регистрацию
    Показать сообщения:    

    Афера по-неаполитански через торрент
    Скачать бесплатно Афера по-неаполитански
    Афера по-неаполитански скачать торрент
    Афера по-неаполитански смотреть онлайн
    Cкачать фильм Афера по-неаполитански бесплатно
    Афера по-неаполитански скачать торрент в хорошем качестве
    Афера по-неаполитански смотреть онлайн бесплатно в хорошем качестве


    Вы не можете начинать темы
    Вы не можете отвечать на сообщения
    Вы не можете редактировать свои сообщения
    Вы не можете удалять свои сообщения
    Вы не можете голосовать в опросах
    Вы не можете прикреплять файлы к сообщениям
    Вы можете скачивать файлы