Достать ножи: Стеклянная луковица

MVO

Добыча

Дубляж

Уэнсдэй

1 сезон

Тор

Дубляж

13 клиническая

1 сезон

Жестокая ночь

MVO

Одни из нас

1 сезон

Deluxe

pack

Рекомендуем

30

Пиратка

ВАЖНО

ВАЖНО

Ghostwire

Пиратка

jed

RePack

nioh2

RePack

RDR2

RePack

NEED FOR SPEED™ PAYBACK

RePack

скачать торрент

Кинопоиск HD

Острые козырьки 6 сезон

6 сезон

FAR CRY 6

RePack

скачать торрент

Лицензия

скачать торрент

MVO

1

1 сезон

скачать торрент

1 сезон

скачать торрент

Лицензия

  

Круиз по джунглям / Jungle Cruise (Жауме Кольет-Серра) [2021, Приключения, комедия, фэнтези, BDRip - HEVC 1080p 10 bit 60 FPS, Дубляж, AVO]

Круиз по джунглям через торрент pb.wtf

Раздают: 1 [ 0 KB/s ]
Размер: 4.3 GB | Добавлен: 6 мес. назад | Торрент скачан:119 раз
Смотреть онлайн | Скачать | Поддержите нас   

08-07-2022 08:28 Круиз по джунглям Скачать торрент  

Jungle Cruise
Информация Описание:
Название: Круиз по джунглям
Оригинальное название: Jungle Cruise
Год выхода: 2021
Жанр: приключения, комедия, фэнтези
Режиссер: Жауме Кольет-Серра
В ролях: Эмили Блант, Дуэйн Джонсон, Эдгар Рамирес, Джек Уайтхолл, Джесси Племонс, Пол Джаматти, Вероника Фалькон, Энди Найман, Филипп Максимилиан, Дэни Ровира
Описание: Хитростью и немалой сноровкой раздобыв бесценную карту верховьев Амазонки, бойкая археолог Лили Хоутон отправляется в экспедицию, чтобы найти волшебное дерево, цветок которого — согласно легенде — обладает невероятными целебными свойствами. Прихватив с собой младшего брата, который не в восторге от перспективы поездки в дикие джунгли, девушка нанимает проводника — капитана круизного пароходика по имени Фрэнк. Вся компания пускается в приключение, где их подстерегают не только смертельно опасные представители амазонской флоры и фауны, но и ловушки, подстроенные участниками конкурирующей экспедиции.


Страна: США
Студия: 7 Bucks Productions, Davis Entertainment, Flynn Picture Company, TSG Entertainment, Walt Disney Pictures, Zaftig Films
Продолжительность: 02:07:31
Перевод: Дублированный | Невафильм
Перевод: Авторский | М. Яроцкий (kyberpunk)
Субтитры: русские
Навигация по главам: есть
Информация о файле:
Качество: BDRip - HEVC 1080p Rip by DD2D3
Формат: MKV
Видео: V_MPEGH/ISO/HEVC; 1920x808 (2.40:1);3643 Kbps; 60 fps; 0,039 bpp
Аудио: русский; AC3+; 448 Kbps; CBR; 6 ch ||
Аудио: русский; AC3; 640 Kbps; CBR; 6 ch ||
Доп. информация: нет

Общее
Уникальный идентификатор : 206247129726370520006986925176431583858 (0x9B29C097486AEE0C97241A1714702272)
Полное имя : E:\Jungle Cruise (2021) BDRip - HEVC 1080p 10 bit 60 FPS.mkv
Формат : Matroska
Версия формата : Version 2
Размер файла : 4,30 Гбайт
Продолжительность : 2 ч. 7 м.
Общий поток : 4 828 Кбит/сек
Название фильма : Rip by from DD2D3
Дата кодирования : UTC 2022-07-08 07:26:06
Программа кодирования : mkvmerge v6.9.1 ('Blue Panther') 32bit built on Apr 18 2014 18:15:44
Библиотека кодирования : libebml v1.3.0 + libmatroska v1.4.1
Attachments : poster

Видео
Идентификатор : 1
Формат : HEVC
Формат/Информация : High Efficiency Video Coding
Профиль формата : Main [email protected]@Main
Идентификатор кодека : V_MPEGH/ISO/HEVC
Продолжительность : 2 ч. 7 м.
Битрейт : 3 644 Кбит/сек
Ширина : 1 920 пикселей
Высота : 808 пикселей
Высота оригинала : 804 пикселя
Соотношение сторон : 2,40:1
Соотношение сторон в оригинале : 2,40:1
Режим частоты кадров : Постоянный
Частота кадров : 60,000 кадров/сек
Цветовое пространство : YUV
Субдискретизация насыщенности : 4:2:0
Битовая глубина : 10 бит
Бит/(Пиксели*Кадры) : 0.039
Размер потока : 3,25 Гбайт (75%)
Default : Да
Forced : Нет
Цветовой диапазон : Limited
Основные цвета : BT.709
Характеристики трансфера : BT.709
Коэффициенты матрицы : BT.709

Аудио #1
Идентификатор : 2
Формат : E-AC-3
Формат/Информация : Enhanced AC-3
Коммерческое название : Dolby Digital Plus
Идентификатор кодека : A_EAC3
Продолжительность : 2 ч. 7 м.
Вид битрейта : Постоянный
Битрейт : 448 Кбит/сек
Каналы : 6 каналов
Channel layout : L R C LFE Ls Rs
Частота : 48,0 КГц
Частота кадров : 31,250 кадров/сек (1536 SPF)
Метод сжатия : С потерями
Размер потока : 409 Мбайт (9%)
Заголовок : Дубляж [Невафильм]
Язык : Russian
Service kind : Complete Main
Default : Да
Forced : Да
Statistics Tags Issue : mkvmerge v59.0.0 ('Shining Star') 64-bit 2021-10-01 08:49:46 / mkvmerge v6.9.1 ('Blue Panther') 32bit built on Apr 18 2014 18:15:44 2022-07-08 07:26:06
FromStats_BitRate : 448000
FromStats_Duration : 02:07:31.904000000
FromStats_FrameCount : 239122
FromStats_StreamSize : 428506624

Аудио #2
Идентификатор : 3
Формат : AC-3
Формат/Информация : Audio Coding 3
Коммерческое название : Dolby Digital
Идентификатор кодека : A_AC3
Продолжительность : 2 ч. 7 м.
Вид битрейта : Постоянный
Битрейт : 640 Кбит/сек
Каналы : 6 каналов
Channel layout : L R C LFE Ls Rs
Частота : 48,0 КГц
Частота кадров : 31,250 кадров/сек (1536 SPF)
Метод сжатия : С потерями
Размер потока : 584 Мбайт (13%)
Заголовок : AVO [kyberpunk]
Язык : Russian
Service kind : Complete Main
Default : Нет
Forced : Нет
Statistics Tags Issue : mkvmerge v59.0.0 ('Shining Star') 64-bit 2021-10-01 08:49:46 / mkvmerge v6.9.1 ('Blue Panther') 32bit built on Apr 18 2014 18:15:44 2022-07-08 07:26:06
FromStats_BitRate : 640000
FromStats_Duration : 02:07:18.784000000
FromStats_FrameCount : 238712
FromStats_StreamSize : 611102720

Текст
Идентификатор : 4
Формат : UTF-8
Идентификатор кодека : S_TEXT/UTF8
Идентификатор кодека/Информация : UTF-8 Plain Text
Заголовок : Full v.2
Язык : Russian
Default : Нет
Forced : Нет
Statistics Tags Issue : mkvmerge v59.0.0 ('Shining Star') 64-bit 2021-10-01 08:49:46 / mkvmerge v6.9.1 ('Blue Panther') 32bit built on Apr 18 2014 18:15:44 2022-07-08 07:26:06
FromStats_BitRate : 100
FromStats_Duration : 01:56:16.140000000
FromStats_FrameCount : 1542
FromStats_StreamSize : 87759

Меню
00:00:00.000 : en:Глава 01
00:03:16.154 : en:Глава 02
00:09:20.435 : en:Глава 03
00:14:44.801 : en:Глава 04
00:17:48.859 : en:Глава 05
00:22:35.854 : en:Глава 06
00:26:23.415 : en:Глава 07
00:31:19.044 : en:Глава 08
00:32:54.055 : en:Глава 09
00:36:55.046 : en:Глава 10
00:41:08.883 : en:Глава 11
00:44:18.656 : en:Глава 12
00:46:25.157 : en:Глава 13
00:48:58.102 : en:Глава 14
00:53:53.480 : en:Глава 15
00:57:06.757 : en:Глава 16
00:58:59.828 : en:Глава 17
01:03:08.994 : en:Глава 18
01:07:11.110 : en:Глава 19
01:13:45.421 : en:Глава 20
01:17:04.620 : en:Глава 21
01:18:26.243 : en:Глава 22
01:24:44.955 : en:Глава 23
01:26:34.314 : en:Глава 24
01:28:21.171 : en:Глава 25
01:35:22.759 : en:Глава 26
01:36:46.467 : en:Глава 27
01:42:55.544 : en:Глава 28
01:54:20.270 : en:Глава 29
01:57:05.268 : en:Глава 30




Скачать Круиз по джунглям через торрент https://st-kp-yandex-net.translate.goog/images/film_iphone/iphone360_462059.jpg Скачать, смотреть онлайн Круиз по джунглям бесплантно в хорошем качестве Описание:Название: Круиз по джунглямОригинальное название: Jungle CruiseГод выхода: 2021Жанр: приключения, комедия, фэнтезиРежиссер: Жауме ... 7.8 10 8
Info! Золотая раздача, скачанное не засчитывается.
Торрент: Зарегистрирован [2022-07-08 08:28] · скачан: 119 раз
Статус: √ проверено
Размер: 4.3 GB
Как cкачать? Как скачать Круиз по джунглям через торрент | UTorrent

% Раздел Тема Автор DL S | L
Фильмы 2021 [DVDrip, WEB-DLRip, HDrip] (DUB, MVO) [ 763 MB ] Круиз по джунглям / Jungle Cruise | iTunes | HDRip, Дубляж coc900 Скачать
3 | 0
Ultra HD (UHD: 2K, 4K, 8K) [ 54.46 GB ] Круиз по джунглям / Jungle Cruise | HDRezka Studio | 2160p bober100 Скачать
2 | 0
Фильмы 2021 [DVDrip, WEB-DLRip, HDrip] (DUB, MVO) [ 2.18 GB ] Круиз по джунглям / Jungle Cruise | Лицензия | BDRip Twi7ter Скачать
6 | 1
Фильмы 2021 [DVDrip, WEB-DLRip, HDrip] (DUB, MVO) [ 1.47 GB ] Круиз по джунглям / Jungle Cruise | Лицензия | BDRip Twi7ter Скачать
13 | 1
Фильмы [HD 720p, 1080p] (Хороший звук DUB, MVO) [ 10.56 GB ] Круиз по джунглям / Jungle Cruise | HDRezka Studio | 1080p bober100 Скачать
2 | 0
Фильмы [HD 720p, 1080p] (Хороший звук DUB, MVO) [ 6.57 GB ] Круиз по джунглям / Jungle Cruise | HDRezka Studio | 720p bober100 Скачать
1 | 0
Фильмы 2021 [DVDrip, WEB-DLRip, HDrip] (DUB, MVO) [ 1.46 GB ] Круиз по джунглям / Jungle Cruise | DUB | BDRip bober100 Скачать
1 | 0

28-11-2019 20:33  


Отключить вcю реклaмy на сайте, в т.ч. и в плеере онлайн просмотра!

08-07-2022 10:58 Круиз по джунглям Скачать торрент  

огромное спасибо



12-07-2022 22:35 Круиз по джунглям Скачать торрент  


Большое Спасибо dd2d3!!!
Как всегда помогу с раздачей! muscle
Спасибо Друг, что ты есть!

Best Regards, Your V&S!



    Дорогой пользователь! Огромная просьба, поблагодарите релизера, оцените раздачу и оставьте свои комментарий, если Вы скачали Круиз по джунглям через торрент бесплатно!!
    Комментировать посты могут только пользователи прошедшие не сложную регистрацию
    Показать сообщения:    


    Круиз по джунглям через торрент
    Скачать бесплатно Круиз по джунглям
    Круиз по джунглям скачать торрент
    Круиз по джунглям смотреть онлайн
    Cкачать фильм Круиз по джунглям бесплатно
    Круиз по джунглям скачать торрент в хорошем качестве
    Круиз по джунглям смотреть онлайн бесплатно в хорошем качестве
    Вы не можете начинать темы
    Вы не можете отвечать на сообщения
    Вы не можете редактировать свои сообщения
    Вы не можете удалять свои сообщения
    Вы не можете голосовать в опросах
    Вы не можете прикреплять файлы к сообщениям
    Вы можете скачивать файлы
    Круиз по джунглям / Jungle Cruise [2021, Приключения, комедия, фэнтези, BDRip - HEVC 1080p 10 bit 60 FPS, Дубляж, AVO] смотреть онлайн, скачать торрент picoco.icu